<?xml version="1.0" standalone="no"?>
<!DOCTYPE svg PUBLIC "-//W3C//DTD SVG 1.1//EN" "http://www.w3.org/Graphics/SVG/1.1/DTD/svg11.dtd" >
<svg xmlns="http://www.w3.org/2000/svg" xmlns:xlink="http://www.w3.org/1999/xlink" version="1.1">
<metadata>
Created by FontForge 20201107 at Sat Feb 17 00:23:36 2001
 By Unknown
(URW)++,Copyright 2000 by (URW)++ Design &#38; Development
</metadata>
<defs>
<font id="LegacySansItcTOT-Medium" horiz-adv-x="544" >
  <font-face 
    font-family="Legacy Sans Itc T OT"
    font-weight="500"
    font-stretch="normal"
    units-per-em="1000"
    panose-1="2 0 0 0 0 0 0 0 0 0"
    ascent="800"
    descent="-200"
    x-height="422"
    cap-height="634"
    bbox="-208 -281 1055 897"
    underline-thickness="65"
    underline-position="-129"
    stemh="60"
    stemv="94"
    unicode-range="U+0020-FB02"
  />
<missing-glyph horiz-adv-x="241" 
 />
    <glyph glyph-name="fi" unicode="fi" horiz-adv-x="537" 
d="M182 422h140v-61h-140v-361h-94v361h-66v43l66 17v22c0 80 20 137 65 183c43 42 102 66 167 66c67 0 136 -34 136 -67c0 -8 -2 -13 -6 -16l-44 -35h-18c-19 31 -54 47 -100 47c-34 0 -65 -13 -83 -34c-17 -21 -23 -52 -23 -126v-39zM370 422h94v-422h-94v422z" />
    <glyph glyph-name="fl" unicode="fl" horiz-adv-x="537" 
d="M373 691h91v-691h-94v594c-26 18 -55 27 -89 27c-35 0 -63 -12 -79 -33c-15 -20 -20 -52 -20 -126v-40h140v-61h-140v-361h-94v361h-66v43l66 17v22c0 88 16 137 60 182c41 41 98 67 150 67c26 0 49 -5 75 -17v16z" />
    <glyph glyph-name=".notdef" horiz-adv-x="241" 
 />
    <glyph glyph-name="space" unicode=" " horiz-adv-x="241" 
 />
    <glyph glyph-name="space" unicode="&#xa0;" horiz-adv-x="241" 
 />
    <glyph glyph-name="exclam" unicode="!" horiz-adv-x="359" 
d="M123 644h112v-120l-37 -361h-38l-37 361v120zM179 114c35 0 63 -28 63 -64c0 -34 -28 -62 -64 -62c-34 0 -62 29 -62 63c0 35 28 63 63 63z" />
    <glyph glyph-name="quotedbl" unicode="&#x22;" horiz-adv-x="545" 
d="M170 343l-18 221v70h84v-70l-18 -221h-48zM326 343l-18 221v70h84v-70l-18 -221h-48z" />
    <glyph glyph-name="numbersign" unicode="#" horiz-adv-x="582" 
d="M256 451h135l46 181h49l-46 -181h136l-16 -61h-136l-34 -132h136l-15 -62h-137l-50 -196h-48l50 196h-135l-50 -196h-49l50 196h-136l16 62h136l34 132h-136l15 61h136l47 181h48zM241 390l-34 -132h134l34 132h-134z" />
    <glyph glyph-name="dollar" unicode="$" horiz-adv-x="241" 
d="M251 695h51v-73c33 0 81 -6 122 -15c16 -4 17 -5 18 -15l2 -61c0 -6 -1 -8 -5 -9l-11 -4c-1 -1 -4 -1 -6 -1c-3 0 -5 1 -12 7c-34 22 -73 35 -108 36v-200c131 -52 180 -102 180 -184c0 -91 -67 -154 -180 -169v-104h-51v102c-54 0 -113 8 -157 20c-17 5 -19 6 -20 15
l-3 61c0 8 1 9 6 12l12 4l7 1c2 0 3 0 16 -8c46 -28 97 -44 139 -43v216c-133 55 -174 97 -174 177c0 88 64 148 174 162v73zM252 379v182c-53 -4 -83 -34 -83 -82c0 -44 26 -76 83 -100zM301 263v-194c54 8 86 41 86 90c0 47 -23 75 -86 104z" />
    <glyph glyph-name="percent" unicode="%" horiz-adv-x="718" 
d="M177 646c90 0 149 -65 149 -165c0 -108 -60 -175 -157 -175c-91 0 -150 65 -150 167c0 106 61 173 158 173zM174 596c-46 0 -76 -48 -76 -122s28 -118 73 -118c47 0 76 47 76 122c0 72 -29 118 -73 118zM542 634h64l-436 -645h-63zM550 328c91 0 149 -65 149 -165
c0 -108 -60 -175 -157 -175c-91 0 -150 65 -150 167c0 106 61 173 158 173zM547 278c-46 0 -76 -48 -76 -123c0 -73 28 -117 74 -117s75 47 75 122c0 72 -29 118 -73 118z" />
    <glyph glyph-name="ampersand" unicode="&#x26;" horiz-adv-x="637" 
d="M529 357h85c-25 -76 -66 -150 -112 -206c57 -82 88 -105 149 -109l-5 -42c-17 -2 -28 -3 -45 -3c-76 0 -100 13 -160 85c-66 -64 -131 -93 -205 -93c-116 0 -199 74 -199 176c0 75 45 131 142 175c-46 36 -67 75 -67 125c0 87 73 151 174 151c92 0 152 -51 152 -128
c0 -67 -38 -111 -119 -141c56 -37 101 -81 145 -142c25 36 49 92 65 152zM272 378c54 20 80 53 80 103c0 48 -29 80 -74 80c-46 0 -76 -31 -76 -80c0 -42 22 -74 70 -103zM228 305c-61 -28 -91 -68 -91 -121c0 -67 50 -113 124 -113c54 0 97 19 143 63
c-55 81 -86 112 -176 171z" />
    <glyph glyph-name="quoteright" unicode="&#x2019;" horiz-adv-x="267" 
d="M53 411v6c57 42 89 84 89 119c0 14 -7 23 -23 29c-31 11 -41 23 -41 47c0 29 24 50 56 50c46 0 80 -40 80 -95c0 -52 -27 -104 -77 -150c-17 -15 -49 -38 -54 -38c-1 0 -1 0 -5 4z" />
    <glyph glyph-name="parenleft" unicode="(" horiz-adv-x="378" 
d="M264 684l42 -39c-107 -135 -155 -271 -155 -437c0 -159 51 -299 155 -428l-42 -38c-131 124 -202 289 -202 470c0 180 72 349 202 472z" />
    <glyph glyph-name="parenright" unicode=")" horiz-adv-x="378" 
d="M114 -258l-42 38c106 135 155 272 155 437c0 159 -50 299 -155 429l42 38c132 -125 202 -289 202 -470c0 -180 -71 -347 -202 -472z" />
    <glyph glyph-name="asterisk" unicode="*" horiz-adv-x="545" 
d="M91 502h39l111 -16l-68 89l-20 34l55 33l20 -33l44 -104l43 104l20 33l55 -33l-20 -34l-68 -89l111 16h39v-63h-39l-111 16l68 -89l20 -34l-55 -33l-20 34l-43 103l-44 -103l-20 -34l-55 33l20 34l68 89l-111 -16h-39v63z" />
    <glyph glyph-name="plus" unicode="+" horiz-adv-x="545" 
d="M240 349v164c0 14 2 16 16 16h32c16 0 16 0 16 -18v-162h164c14 0 16 -2 16 -16v-32c0 -15 -1 -16 -18 -16h-162v-164c0 -15 -1 -16 -16 -16h-32c-13 0 -16 3 -16 16v164h-164c-14 0 -16 2 -16 16v32c0 14 2 16 16 16h164z" />
    <glyph glyph-name="comma" unicode="," horiz-adv-x="278" 
d="M52 -144v6c59 42 92 84 92 118c0 14 -8 22 -24 28c-31 11 -41 23 -41 49c0 30 25 53 57 53c47 0 83 -43 83 -98c0 -56 -29 -108 -90 -159c-20 -17 -40 -31 -45 -31c-2 0 -2 0 -6 5z" />
    <glyph glyph-name="hyphen" unicode="-" horiz-adv-x="322" 
d="M56 278h227l-16 -79h-228z" />
    <glyph glyph-name="hyphen" unicode="&#xad;" horiz-adv-x="322" 
d="M56 278h227l-16 -79h-228z" />
    <glyph glyph-name="period" unicode="." horiz-adv-x="278" 
d="M138 114c35 0 63 -28 63 -64c0 -34 -28 -62 -64 -62c-34 0 -62 29 -62 63c0 35 28 63 63 63z" />
    <glyph glyph-name="slash" unicode="/" horiz-adv-x="422" 
d="M305 637h60l-302 -816h-60z" />
    <glyph glyph-name="zero" unicode="0" 
d="M280 646c137 0 213 -114 213 -322c0 -219 -78 -336 -225 -336c-140 0 -216 113 -216 322c0 219 79 336 228 336zM276 587c-40 0 -67 -18 -88 -59c-23 -44 -33 -111 -33 -220c0 -108 9 -168 32 -208c20 -36 47 -53 84 -53c83 0 119 82 119 273c0 186 -35 267 -114 267z
" />
    <glyph glyph-name="one" unicode="1" 
d="M308 639h40v-639h-96v535l-137 -65h-18v61z" />
    <glyph glyph-name="two" unicode="2" 
d="M485 86l-23 -86h-402v48c78 76 165 169 213 227c62 75 86 127 86 187c0 73 -37 115 -101 115c-71 0 -127 -41 -142 -103c-3 -12 -3 -12 -10 -12h-8c-7 0 -8 1 -10 10l-10 40c-2 8 -2 9 -2 12c0 10 14 32 32 52c44 46 105 71 174 71c111 0 177 -63 177 -168
c0 -66 -25 -123 -82 -189c-47 -55 -71 -79 -209 -204h317z" />
    <glyph glyph-name="three" unicode="3" 
d="M167 297l-13 44c84 37 99 45 126 65c31 23 46 54 46 92c0 53 -32 87 -84 87c-59 0 -109 -32 -128 -81c-2 -4 -3 -5 -9 -5h-8c-8 0 -8 0 -10 8l-12 41c-2 8 -2 8 -2 9c0 6 9 17 29 34c46 38 97 56 161 56c101 0 162 -49 162 -131c0 -60 -30 -99 -108 -144
c35 -3 56 -10 79 -24c45 -29 73 -82 73 -140c0 -63 -32 -129 -81 -169c-41 -32 -102 -51 -167 -51c-72 0 -129 23 -164 66c-12 15 -15 22 -15 37c0 11 1 15 8 18l30 17c8 4 11 5 16 5h12c5 0 7 -1 9 -7c22 -52 63 -80 117 -80c77 0 133 63 133 148c0 75 -45 124 -115 124
c-23 0 -41 -4 -85 -19z" />
    <glyph glyph-name="four" unicode="4" 
d="M518 232v-72h-94v-160h-91v160h-307v67l328 407h70v-402h94zM333 232v292l-230 -292h230z" />
    <glyph glyph-name="five" unicode="5" 
d="M186 634h293l-17 -86h-239l-35 -120c97 -15 152 -33 195 -64c56 -41 87 -100 87 -165c0 -119 -100 -211 -230 -211c-68 0 -127 23 -159 63c-14 17 -17 24 -17 44c0 14 1 16 8 21l28 20c8 5 11 6 17 6h13c6 0 7 -1 10 -10c16 -52 65 -85 124 -85c67 0 116 54 116 128
c0 56 -31 104 -82 129c-42 20 -74 28 -175 42l-15 22z" />
    <glyph glyph-name="six" unicode="6" 
d="M478 605l-8 -15h-13c-64 0 -138 -26 -187 -66c-53 -43 -82 -92 -98 -168c55 35 95 48 146 48c108 0 178 -76 178 -193c0 -133 -90 -223 -221 -223s-216 101 -216 258s85 301 216 364c53 26 104 37 167 37c11 0 13 -1 17 -8zM162 284l-1 -13v-21c0 -128 45 -203 122 -203
c67 0 110 56 110 145c0 90 -41 141 -113 141c-41 0 -75 -14 -118 -49z" />
    <glyph glyph-name="seven" unicode="7" 
d="M63 634h432v-50l-321 -607l-87 22v7l312 538h-336v90z" />
    <glyph glyph-name="eight" unicode="8" 
d="M336 348c58 -28 84 -43 106 -63c33 -30 51 -71 51 -117c0 -107 -94 -180 -233 -180c-129 0 -209 62 -209 162c0 75 45 130 143 172c-81 42 -114 87 -114 155c0 45 18 88 49 118c37 35 90 52 160 52c112 0 178 -53 178 -143c0 -67 -40 -115 -131 -156zM289 370
c61 31 88 70 88 124c0 61 -37 98 -99 98c-68 0 -108 -37 -108 -98c0 -36 14 -63 47 -85c12 -9 22 -14 72 -39zM241 298c-69 -34 -96 -71 -96 -133c0 -76 45 -118 126 -118c78 0 128 42 128 109c0 59 -25 81 -158 142z" />
    <glyph glyph-name="nine" unicode="9" 
d="M67 34l10 13c6 -1 13 -1 14 -1c72 0 135 22 188 66c56 46 83 93 100 178c-52 -36 -97 -52 -148 -52c-105 0 -179 79 -179 190c0 128 93 219 225 219c135 0 211 -92 211 -255c0 -161 -72 -290 -202 -360c-54 -28 -115 -44 -174 -44c-16 0 -19 1 -24 10zM387 369v19
c0 128 -44 200 -121 200c-69 0 -111 -54 -111 -143c0 -84 43 -136 112 -136c41 0 82 17 119 50c0 5 0 5 1 10z" />
    <glyph glyph-name="colon" unicode=":" horiz-adv-x="278" 
d="M138 114c35 0 63 -28 63 -64c0 -34 -28 -62 -64 -62c-34 0 -62 29 -62 63c0 35 28 63 63 63zM138 431c35 0 63 -28 63 -63s-28 -63 -64 -63c-34 0 -62 29 -62 63c0 35 28 63 63 63z" />
    <glyph glyph-name="semicolon" unicode=";" horiz-adv-x="278" 
d="M140 431c35 0 63 -28 63 -63s-28 -63 -64 -63c-34 0 -62 29 -62 63c0 35 28 63 63 63zM52 -144v6c59 42 92 84 92 118c0 14 -7 22 -24 28c-31 11 -41 23 -41 49c0 30 25 53 57 53c47 0 83 -43 83 -98c0 -56 -30 -109 -91 -160c-19 -16 -40 -30 -44 -30c-2 0 -2 0 -6 5z
" />
    <glyph glyph-name="less" unicode="&#x3c;" 
d="M478 558v-82l-326 -155l326 -155v-81l-412 199v75z" />
    <glyph glyph-name="equal" unicode="=" horiz-adv-x="545" 
d="M76 406h392c14 0 16 -2 16 -16v-29c0 -15 -1 -16 -18 -16h-390c-14 0 -16 2 -16 16v29c0 14 2 16 16 16zM76 287h392c14 0 16 -2 16 -16v-29c0 -15 -2 -16 -18 -16h-390c-14 0 -16 2 -16 16v28c0 14 3 17 16 17z" />
    <glyph glyph-name="greater" unicode="&#x3e;" 
d="M66 85v82l326 154l-326 155v82l412 -199v-76z" />
    <glyph glyph-name="question" unicode="?" horiz-adv-x="430" 
d="M84 540l-18 51c-2 6 -3 9 -3 13c0 11 2 15 9 19c24 14 64 23 98 23c111 0 208 -95 208 -203c0 -37 -14 -72 -37 -96c-19 -19 -36 -30 -91 -59c-74 -39 -74 -40 -76 -131h-54l-1 24c-2 32 -4 66 -4 80c0 49 8 58 95 110c76 44 90 60 90 98c0 55 -45 95 -107 95
c-28 0 -57 -8 -86 -24h-23zM148 112c34 0 62 -28 62 -62c0 -35 -28 -62 -63 -62c-33 0 -61 28 -61 61c0 35 28 63 62 63z" />
    <glyph glyph-name="at" unicode="@" horiz-adv-x="793" 
d="M556 500l-38 -257c-3 -24 -4 -32 -4 -38c0 -13 6 -19 19 -19c17 0 43 11 63 27c44 34 75 108 75 177c0 122 -90 204 -226 204c-175 0 -316 -142 -316 -319c0 -149 104 -242 271 -242c55 0 117 12 159 30c3 1 5 2 7 2c5 0 13 -18 13 -30c0 -4 -4 -7 -18 -13
c-55 -22 -112 -33 -179 -33c-206 0 -337 111 -337 286c0 205 180 370 405 370c174 0 297 -103 297 -250c0 -102 -61 -192 -157 -232c-32 -13 -66 -21 -93 -21c-37 0 -56 15 -56 46c0 17 4 44 12 82c-61 -86 -113 -128 -159 -128s-75 40 -75 103c0 71 42 144 112 195
c45 32 89 49 152 58l1 7c1 5 3 6 10 6h57c4 0 6 -2 6 -4c0 0 0 -1 -1 -7zM460 337l8 57c3 25 3 25 3 30c0 10 -7 15 -21 15c-74 0 -152 -94 -152 -183c0 -28 9 -43 25 -43c30 0 80 46 137 124z" />
    <glyph glyph-name="A" unicode="A" horiz-adv-x="633" 
d="M301 634h78l252 -634h-113l-73 199h-264l-81 -199h-97zM422 259l-102 274l-113 -274h215z" />
    <glyph glyph-name="B" unicode="B" horiz-adv-x="607" 
d="M91 0v634c70 1 89 2 117 2c40 1 72 2 84 2c86 0 130 -9 165 -33c39 -26 60 -66 60 -111c0 -63 -33 -105 -104 -134c44 -8 65 -16 89 -34c40 -30 64 -79 64 -132c0 -66 -36 -126 -94 -158c-45 -25 -107 -36 -201 -36h-180zM191 370h71c62 0 87 5 109 23c24 19 36 46 36 83
c0 39 -13 68 -38 84c-19 13 -48 19 -95 19c-13 0 -29 -1 -83 -3v-206zM191 62l91 -1c115 0 174 43 174 126c0 46 -20 82 -56 102c-28 15 -71 22 -138 22h-71v-249z" />
    <glyph glyph-name="C" unicode="C" horiz-adv-x="644" 
d="M623 605l-7 -51c-1 -7 -1 -8 -6 -11l-8 -3c-1 -1 -4 -2 -6 -2s-2 0 -17 7c-49 24 -117 38 -178 38c-60 0 -115 -18 -157 -51c-58 -46 -87 -117 -87 -210c0 -161 102 -273 249 -273c66 0 136 18 184 48c2 1 3 1 4 1s2 -1 3 -2l3 -1l7 -5c3 -2 4 -3 4 -6v-6l-9 -50
c-1 -10 -3 -11 -15 -15c-49 -15 -127 -25 -193 -25c-87 0 -154 17 -210 54c-87 56 -139 155 -139 263c0 113 56 216 151 278c65 43 144 63 242 63c63 0 147 -12 176 -25c7 -2 10 -7 9 -13v-3z" />
    <glyph glyph-name="D" unicode="D" horiz-adv-x="737" 
d="M91 0v634c131 5 195 7 242 7c131 0 197 -16 255 -64c67 -54 104 -140 104 -243c0 -116 -48 -213 -134 -272c-64 -44 -142 -62 -272 -62h-195zM194 62h112c94 0 158 18 200 56c47 43 74 119 74 208c0 98 -32 173 -91 214c-42 30 -86 40 -171 40c-35 0 -35 0 -124 -4v-514z
" />
    <glyph glyph-name="E" unicode="E" horiz-adv-x="552" 
d="M91 634h429v-64h-326v-202h290v-65h-290v-235h333v-68h-436v634z" />
    <glyph glyph-name="F" unicode="F" horiz-adv-x="504" 
d="M91 634h435v-67h-332v-207h280v-67h-280v-293h-103v634z" />
    <glyph glyph-name="G" unicode="G" horiz-adv-x="711" 
d="M545 315h103v-297c-85 -19 -175 -30 -245 -30c-93 0 -168 18 -225 54c-83 53 -133 151 -133 260c0 205 158 344 392 344c54 0 149 -12 174 -23c8 -3 11 -7 11 -15l3 -55c0 -5 0 -6 -4 -9l-12 -8c-2 -2 -3 -2 -4 -2c-2 0 -4 1 -19 9c-47 25 -112 40 -169 40
c-159 0 -260 -104 -260 -266c0 -166 101 -266 268 -266c39 0 72 4 120 16v248z" />
    <glyph glyph-name="H" unicode="H" horiz-adv-x="741" 
d="M194 368h352v266h103v-634h-103v300h-352v-300h-103v634h103v-266z" />
    <glyph glyph-name="I" unicode="I" horiz-adv-x="285" 
d="M91 634h103v-634h-103v634z" />
    <glyph glyph-name="J" unicode="J" horiz-adv-x="285" 
d="M91 634h103v-537c0 -113 -9 -149 -50 -200c-45 -55 -106 -86 -169 -86c-32 0 -65 10 -80 24c-3 4 -4 7 -4 20c0 14 1 16 6 22l30 30c5 4 6 5 11 5h7c6 0 6 0 18 -7c13 -7 33 -11 51 -11c36 0 59 17 69 50c6 22 8 52 8 131v559z" />
    <glyph glyph-name="K" unicode="K" horiz-adv-x="607" 
d="M91 634h103v-634h-103v634zM498 634h122l-308 -277l318 -357h-137l-293 339z" />
    <glyph glyph-name="L" unicode="L" horiz-adv-x="489" 
d="M91 634h103v-566h309v-68h-412v634z" />
    <glyph glyph-name="M" unicode="M" horiz-adv-x="889" 
d="M111 634h97l236 -490l250 490h96l19 -634h-101l-11 500l-251 -490l-41 -6l-240 500l-8 -504h-84z" />
    <glyph glyph-name="N" unicode="N" horiz-adv-x="737" 
d="M83 634h75l422 -480l-12 480h82l-1 -629l-53 -16l-445 504l12 -493h-82z" />
    <glyph glyph-name="O" unicode="O" horiz-adv-x="785" 
d="M407 649c196 0 334 -135 334 -325c0 -197 -150 -339 -357 -339c-83 0 -160 25 -218 72c-75 59 -121 157 -121 255c0 193 155 337 362 337zM391 583c-139 0 -234 -104 -234 -256c0 -155 107 -275 245 -275c131 0 227 108 227 255c0 158 -102 276 -238 276z" />
    <glyph glyph-name="P" unicode="P" horiz-adv-x="559" 
d="M91 0v634c122 3 185 4 193 4c87 0 137 -9 177 -33c51 -31 82 -89 82 -157c0 -70 -34 -130 -92 -167c-46 -28 -100 -39 -191 -39c-26 0 -32 0 -66 1v-243h-103zM194 573v-265c26 -2 40 -3 64 -3c123 0 175 41 175 138c0 56 -21 96 -61 116c-22 11 -53 16 -103 16
c-16 0 -53 -1 -75 -2z" />
    <glyph glyph-name="Q" unicode="Q" horiz-adv-x="785" 
d="M716 -107l5 -47c-20 -5 -33 -7 -57 -7c-98 0 -201 53 -297 153c-185 3 -322 140 -322 321c0 188 156 333 359 333c198 0 337 -132 337 -321c0 -155 -94 -278 -245 -321c73 -73 146 -109 220 -111zM391 583c-139 0 -234 -104 -234 -256c0 -155 107 -276 245 -276
c131 0 227 108 227 256c0 157 -102 276 -238 276z" />
    <glyph glyph-name="R" unicode="R" horiz-adv-x="626" 
d="M91 0v634c28 1 65 1 111 2c38 1 75 2 91 2c89 0 138 -8 174 -30c49 -28 77 -80 77 -142c0 -83 -46 -139 -141 -174c41 -80 106 -175 146 -212c24 -23 54 -36 88 -39l3 -4l-10 -33c-2 -8 -15 -12 -41 -12c-28 0 -64 9 -93 22c-55 26 -105 92 -196 258
c-25 -3 -36 -4 -63 -4c-14 0 -24 0 -43 1v-269h-103zM194 574v-245c27 -1 45 -2 65 -2c122 0 175 39 175 130c0 51 -20 87 -57 105c-22 10 -52 14 -103 14c-21 0 -47 -1 -80 -2z" />
    <glyph glyph-name="S" unicode="S" horiz-adv-x="507" 
d="M432 613l8 -56l1 -5c0 -2 -2 -5 -4 -6l-17 -7c-1 -1 -4 -2 -5 -2c-2 0 -6 2 -14 8c-27 20 -89 38 -132 38c-75 0 -123 -37 -123 -96c0 -27 11 -50 31 -65c21 -16 37 -24 111 -56c79 -35 107 -51 134 -78c29 -28 46 -68 46 -109c0 -112 -102 -191 -247 -191
c-47 0 -136 13 -168 24c-12 4 -15 7 -16 15l-8 61c-1 3 -1 5 -1 7s2 4 4 6l15 8c5 2 5 2 6 2c2 0 2 0 12 -7c42 -27 117 -49 171 -49c79 0 134 41 134 102c0 24 -10 47 -26 63c-18 18 -41 31 -105 58c-83 35 -113 52 -142 78c-30 27 -47 67 -47 110c0 109 95 180 239 180
c43 0 109 -9 132 -19c7 -3 10 -6 11 -14z" />
    <glyph glyph-name="T" unicode="T" horiz-adv-x="570" 
d="M-26 634h623v-67h-260v-567h-103v567h-260v67z" />
    <glyph glyph-name="U" unicode="U" horiz-adv-x="700" 
d="M82 634h103v-340c0 -128 4 -151 28 -182c23 -30 77 -48 141 -48c74 0 135 27 161 72c18 31 24 72 24 176v322h82l-3 -321c-1 -151 -18 -210 -71 -257c-50 -44 -127 -68 -220 -68c-101 0 -170 27 -208 81c-31 45 -37 83 -37 222v343z" />
    <glyph glyph-name="V" unicode="V" horiz-adv-x="585" 
d="M-4 634h114l190 -512l215 512h96l-296 -634h-67z" />
    <glyph glyph-name="W" unicode="W" horiz-adv-x="948" 
d="M-3 634h108l172 -507l180 507h59l170 -508l185 508h94l-265 -634h-66l-159 472l-176 -472h-69z" />
    <glyph glyph-name="X" unicode="X" horiz-adv-x="567" 
d="M20 634h119l160 -242l167 242h107l-234 -297l239 -337h-122l-178 270l-187 -270h-109l256 325z" />
    <glyph glyph-name="Y" unicode="Y" horiz-adv-x="500" 
d="M-29 634h121l171 -290l175 290h107l-249 -355v-279h-103v275z" />
    <glyph glyph-name="Z" unicode="Z" horiz-adv-x="563" 
d="M43 634h509v-42l-402 -524h403l-11 -68h-532v43l406 524h-373v67z" />
    <glyph glyph-name="bracketleft" unicode="[" horiz-adv-x="378" 
d="M99 679h210v-50h-123v-832h123v-50h-210v932z" />
    <glyph glyph-name="backslash" unicode="\" horiz-adv-x="422" 
d="M117 637l302 -816h-60l-302 816h60z" />
    <glyph glyph-name="bracketright" unicode="]" horiz-adv-x="378" 
d="M278 -253h-210v50h123v832h-123v50h210v-932z" />
    <glyph glyph-name="asciicircum" unicode="^" horiz-adv-x="476" 
d="M114 334h-99l161 303h123l161 -303h-99l-124 228z" />
    <glyph glyph-name="underscore" unicode="_" horiz-adv-x="476" 
d="M0 -97h476v-65h-476v65z" />
    <glyph glyph-name="quoteleft" unicode="&#x2018;" horiz-adv-x="267" 
d="M214 636v-5c-58 -43 -89 -84 -89 -119c0 -15 7 -23 23 -29c31 -12 41 -24 41 -47c0 -29 -24 -51 -56 -51c-46 0 -80 41 -80 95c0 51 27 104 77 150c17 15 49 38 54 38c1 0 3 -1 5 -3z" />
    <glyph glyph-name="a" unicode="a" horiz-adv-x="497" 
d="M78 320l-3 50c1 7 3 12 6 14c39 29 113 49 179 49c56 0 96 -13 121 -39c20 -22 26 -47 26 -102v-10l-3 -170v-9c0 -37 3 -43 24 -43c17 0 36 5 62 17l4 -3v-39c0 -7 -2 -9 -10 -14c-27 -16 -79 -31 -107 -31c-27 0 -45 12 -54 38c-68 -25 -122 -38 -164 -38
c-68 0 -109 45 -109 120c0 57 21 85 75 102c49 15 106 26 190 36c-1 68 -1 71 -6 84c-9 23 -35 35 -78 35c-58 0 -93 -15 -125 -54zM314 79v119c-51 -8 -89 -15 -126 -25c-39 -11 -47 -20 -47 -53c0 -42 21 -61 66 -61c28 0 53 5 107 20z" />
    <glyph glyph-name="b" unicode="b" horiz-adv-x="555" 
d="M73 691h94v-297c67 28 111 39 161 39c114 0 185 -75 185 -194c0 -151 -115 -249 -292 -249c-47 0 -102 7 -137 19c-10 3 -11 4 -11 11v671zM167 335v-262c30 -10 63 -15 100 -15c96 0 146 54 146 156c0 95 -46 147 -128 147c-38 0 -79 -9 -118 -26z" />
    <glyph glyph-name="c" unicode="c" horiz-adv-x="437" 
d="M383 332h-18c-35 24 -60 32 -97 32c-82 0 -128 -51 -128 -143c0 -97 53 -160 134 -160c45 0 89 14 131 40l8 -4v-37c0 -7 -2 -10 -10 -16c-41 -31 -117 -56 -171 -56c-112 0 -190 81 -190 200c0 140 112 245 261 245c44 0 87 -13 111 -32c5 -5 6 -7 6 -21
c0 -11 -1 -14 -6 -19z" />
    <glyph glyph-name="d" unicode="d" horiz-adv-x="555" 
d="M388 691h94v-691h-94v42c-52 -34 -105 -51 -157 -51c-114 0 -189 79 -189 197c0 139 113 242 265 242c27 0 45 -2 81 -9v270zM388 95v236c-32 19 -64 27 -106 27c-92 0 -142 -51 -142 -144s54 -153 137 -153c35 0 71 11 111 34z" />
    <glyph glyph-name="e" unicode="e" horiz-adv-x="452" 
d="M419 226l-276 -30c5 -88 49 -136 125 -136c45 0 83 11 130 38h8l13 -38c1 -1 1 -3 1 -4c0 -3 -4 -7 -16 -15c-50 -33 -114 -53 -169 -53c-120 0 -193 81 -193 213c0 139 83 232 206 232c111 0 170 -71 171 -207zM142 249l173 22c-3 70 -31 107 -79 107
c-56 0 -91 -49 -94 -129z" />
    <glyph glyph-name="f" unicode="f" horiz-adv-x="304" 
d="M183 422h142v-61h-142v-361h-95v361h-66v43l66 17v22c0 90 16 136 64 181c44 43 105 69 162 69c52 0 107 -25 107 -48c0 -5 -2 -11 -4 -15l-30 -41h-18c-24 21 -52 31 -87 31c-33 0 -63 -12 -78 -33c-16 -20 -21 -52 -21 -125v-40z" />
    <glyph glyph-name="g" unicode="g" horiz-adv-x="496" 
d="M485 421v-60h-98c27 -29 38 -59 38 -99c0 -62 -33 -112 -92 -140c-29 -14 -36 -16 -93 -33c-15 -4 -31 -9 -50 -14c-11 -4 -15 -8 -15 -15c0 -20 20 -25 129 -39c88 -11 115 -17 142 -36c29 -19 43 -46 43 -79c0 -95 -133 -174 -296 -174c-110 0 -178 39 -178 103
c0 54 46 90 165 132c-64 12 -88 31 -88 70c0 22 8 35 28 45c9 4 17 8 64 25c-41 8 -60 17 -82 36c-32 28 -50 69 -50 116c0 101 79 174 187 174c28 0 49 -3 82 -13zM255 144c53 15 78 49 78 105c0 78 -40 131 -98 131c-56 0 -91 -41 -91 -106c0 -77 41 -125 111 -130z
M237 -46c-87 -33 -129 -67 -129 -103s51 -62 123 -62c96 0 178 45 178 97c0 25 -17 41 -51 49s-80 15 -121 19z" />
    <glyph glyph-name="h" unicode="h" horiz-adv-x="537" 
d="M73 691h94v-314c67 39 117 56 169 56c50 0 89 -18 110 -53c16 -26 20 -53 20 -138v-242h-95v244c0 48 -2 67 -9 80c-12 21 -33 32 -64 32c-35 0 -85 -17 -131 -44v-312h-94v691z" />
    <glyph glyph-name="i" unicode="i" horiz-adv-x="241" 
d="M73 422h95v-422h-95v422zM120 682c31 0 56 -25 56 -56c0 -30 -25 -55 -56 -55c-30 0 -55 25 -55 55c0 31 25 56 55 56z" />
    <glyph glyph-name="j" unicode="j" horiz-adv-x="241" 
d="M75 422h95v-450c0 -96 -9 -130 -45 -175c-36 -43 -87 -68 -139 -68c-26 0 -51 7 -64 18c-4 4 -5 7 -5 16s1 12 5 17l33 34h15c17 -9 31 -12 47 -12c26 0 43 12 52 34c5 13 6 24 6 85v501zM123 683c31 0 56 -25 56 -56s-25 -56 -57 -56c-30 0 -55 26 -55 56
c0 31 25 56 56 56z" />
    <glyph glyph-name="k" unicode="k" horiz-adv-x="485" 
d="M73 691h94v-691h-94v691zM371 422h119l-215 -175l224 -247h-128l-198 228z" />
    <glyph glyph-name="l" unicode="l" horiz-adv-x="241" 
d="M73 691h95v-691h-95v691z" />
    <glyph glyph-name="m" unicode="m" horiz-adv-x="815" 
d="M73 422h94v-57c71 50 116 68 168 68c53 0 86 -21 106 -67c69 48 116 67 169 67c54 0 98 -23 119 -62c12 -23 15 -46 15 -113v-258h-95v246c0 49 -2 64 -8 77c-10 21 -32 33 -61 33c-34 0 -75 -16 -124 -48v-308h-95v241c0 56 -1 69 -8 83c-8 20 -30 32 -56 32
c-36 0 -76 -18 -129 -58v-298h-95v422z" />
    <glyph glyph-name="n" unicode="n" horiz-adv-x="537" 
d="M73 422h94v-59c76 53 119 70 175 70c49 0 87 -19 107 -54c15 -26 17 -42 17 -123v-256h-95v239c0 56 -1 69 -9 85c-10 21 -29 32 -56 32c-40 0 -87 -20 -138 -58v-298h-95v422z" />
    <glyph glyph-name="o" unicode="o" horiz-adv-x="555" 
d="M291 433c131 0 222 -87 222 -214c0 -135 -103 -232 -245 -232c-133 0 -226 90 -226 218c0 135 101 228 249 228zM275 373c-79 0 -131 -56 -131 -142c0 -103 62 -183 140 -183c75 0 127 62 127 151c0 100 -58 174 -136 174z" />
    <glyph glyph-name="p" unicode="p" horiz-adv-x="555" 
d="M167 5v-256c0 -7 -1 -8 -8 -8h-78c-7 0 -8 1 -8 8v665c0 7 1 8 8 8h77c8 0 8 0 9 -6v-2v-28c66 35 108 47 163 47c110 0 183 -77 183 -195c0 -138 -114 -245 -259 -245c-27 0 -48 3 -87 12zM167 329v-241c39 -18 66 -25 104 -25c91 0 144 56 144 151
c0 90 -52 148 -132 148c-39 0 -77 -11 -116 -33z" />
    <glyph glyph-name="q" unicode="q" horiz-adv-x="555" 
d="M388 -251v277c-63 -26 -109 -37 -157 -37c-116 0 -189 75 -189 192c0 150 116 252 286 252c46 0 113 -9 144 -19c9 -3 10 -5 10 -11v-654c0 -7 -1 -8 -8 -8h-78c-7 0 -8 1 -8 8zM388 83v267c-28 10 -61 15 -93 15c-97 0 -151 -55 -151 -156c0 -97 48 -149 137 -149
c36 0 73 8 107 23z" />
    <glyph glyph-name="r" unicode="r" horiz-adv-x="351" 
d="M73 422h95l-2 -111c35 55 44 68 61 84c26 26 53 38 83 38c20 0 48 -8 59 -17c5 -4 6 -7 6 -16c0 -7 -1 -13 -3 -18l-23 -52h-15c-12 10 -25 14 -43 14c-43 0 -68 -24 -123 -117v-227h-95v422z" />
    <glyph glyph-name="s" unicode="s" horiz-adv-x="404" 
d="M344 350l-23 -11c-38 24 -69 34 -107 34c-47 0 -76 -20 -76 -52c0 -30 15 -40 97 -69c58 -20 78 -30 101 -48c23 -19 36 -47 36 -79c0 -82 -75 -136 -189 -136c-38 0 -99 9 -127 19c-6 2 -6 3 -8 11l-10 63l24 11c40 -28 83 -42 133 -42c52 0 84 22 84 57
c0 31 -17 44 -89 68c-62 21 -75 26 -97 41c-29 20 -45 51 -45 86c0 78 71 129 180 129c34 0 85 -7 101 -13c5 -2 6 -4 7 -11z" />
    <glyph glyph-name="t" unicode="t" horiz-adv-x="341" 
d="M175 422h168v-59h-168v-202c0 -77 18 -105 66 -105c27 0 55 8 95 26l5 -2l6 -35c1 -2 1 -3 1 -4c0 -3 -4 -6 -20 -15c-46 -25 -93 -38 -132 -38c-45 0 -80 18 -97 50c-11 22 -17 61 -16 107v5l1 212h-55v24l124 127h25z" />
    <glyph glyph-name="u" unicode="u" horiz-adv-x="537" 
d="M464 422v-422h-93v56c-61 -46 -112 -67 -167 -67s-98 24 -118 67c-13 28 -16 53 -16 145v221h95v-220c0 -72 2 -87 10 -105c11 -20 33 -32 60 -32c37 0 86 20 134 55v302h95z" />
    <glyph glyph-name="v" unicode="v" horiz-adv-x="422" 
d="M-2 422h106l117 -319l133 319h86l-203 -422h-68z" />
    <glyph glyph-name="w" unicode="w" horiz-adv-x="692" 
d="M5 422h101l105 -323l124 323h57l103 -321l127 321h84l-196 -422h-69l-95 283l-116 -283h-69z" />
    <glyph glyph-name="x" unicode="x" horiz-adv-x="418" 
d="M11 422h111l103 -147l107 147h98l-168 -200l162 -222h-111l-109 161l-115 -161h-101l177 215z" />
    <glyph glyph-name="y" unicode="y" horiz-adv-x="422" 
d="M6 422h109l102 -322l139 322h89l-344 -686l-84 24l144 236z" />
    <glyph glyph-name="z" unicode="z" horiz-adv-x="404" 
d="M36 422h363v-40l-263 -319h263l-14 -63h-376v43l264 319h-237v60z" />
    <glyph glyph-name="braceleft" unicode="{" horiz-adv-x="378" 
d="M322 680v-49c-77 -3 -97 -24 -97 -100c0 -7 0 -39 1 -71v-74c0 -118 -21 -153 -102 -173c82 -21 102 -55 102 -174v-74c-1 -32 -1 -63 -1 -70c0 -77 20 -97 97 -100v-49c-62 0 -89 4 -118 18c-50 23 -66 61 -66 159c0 12 0 34 1 53l1 89c0 93 -27 121 -119 124v48
c43 1 60 5 77 15c30 18 42 49 42 110l-1 88c-1 23 -1 41 -1 56c0 80 11 116 43 142c27 22 67 32 129 32h12z" />
    <glyph glyph-name="bar" unicode="|" horiz-adv-x="476" 
d="M191 634h94v-793h-94v793z" />
    <glyph glyph-name="braceright" unicode="}" horiz-adv-x="378" 
d="M56 -254v49c35 2 49 4 63 11c26 14 35 38 35 89l-1 70c-1 27 -1 54 -1 73c0 120 20 155 102 175c-82 20 -102 55 -102 174c0 20 0 47 1 74l1 70c0 76 -21 98 -98 100v49h14c67 0 111 -13 138 -42c25 -26 33 -59 33 -135c0 -12 0 -34 -1 -53c-1 -39 -2 -80 -2 -89
c0 -63 15 -97 50 -113c15 -7 32 -10 69 -11v-48c-92 -3 -119 -31 -119 -125c0 -10 1 -51 2 -88c1 -22 1 -42 1 -56c0 -94 -17 -133 -66 -156c-30 -14 -57 -18 -119 -18z" />
    <glyph glyph-name="asciitilde" unicode="~" horiz-adv-x="634" 
d="M140 544l-53 35c20 42 24 49 35 64c26 38 59 56 102 56c24 0 55 -9 103 -29c54 -23 66 -27 89 -27c32 0 49 13 76 57l55 -31c-23 -48 -38 -68 -60 -86c-25 -19 -55 -30 -85 -30c-24 0 -49 8 -135 44c-18 7 -38 12 -51 12c-31 0 -51 -17 -76 -65z" />
    <glyph glyph-name="exclamdown" unicode="&#xa1;" horiz-adv-x="359" 
d="M235 -223h-112v120l37 361h38l37 -361v-120zM180 435c33 0 62 -29 62 -62c0 -36 -28 -64 -63 -64s-63 28 -63 63s28 63 64 63z" />
    <glyph glyph-name="cent" unicode="&#xa2;" 
d="M286 609h48v-69c52 0 84 -7 110 -23c17 -11 18 -13 18 -32c0 -12 -1 -14 -7 -19l-32 -26h-20c-14 16 -32 24 -69 30v-269c38 2 76 18 104 44l11 -3l14 -39c1 -2 1 -3 1 -4c0 -6 -3 -9 -19 -20c-31 -21 -63 -35 -111 -45v-99h-48v95c-46 3 -74 12 -102 33
c-45 34 -72 91 -72 155c0 107 71 194 174 216v75zM286 206v262c-57 -12 -84 -53 -84 -125c0 -71 29 -118 84 -137z" />
    <glyph glyph-name="sterling" unicode="&#xa3;" 
d="M391 324v-60h-121c6 -23 8 -39 8 -55c0 -47 -20 -88 -63 -128c19 6 38 8 58 8c18 0 39 -2 79 -9c45 -8 61 -10 80 -10c37 0 61 10 84 34l15 -7v-42c0 -11 -2 -14 -12 -23c-33 -28 -75 -43 -123 -43c-30 0 -58 4 -119 15c-37 7 -50 9 -65 9c-26 0 -41 -4 -69 -20
c-3 -1 -5 -2 -7 -2c-3 0 -7 3 -10 9l-14 22c-3 6 -5 10 -5 11c0 4 3 7 15 15c41 30 64 71 64 114c0 27 -5 55 -18 102h-92v60h77c-11 45 -16 77 -16 105c0 69 28 127 81 166c43 31 99 50 152 50c49 0 91 -15 119 -42c18 -18 30 -42 30 -61c0 -11 -4 -19 -12 -22l-58 -23
l-18 7c-6 47 -37 71 -88 71c-68 0 -110 -44 -110 -115c0 -33 6 -65 24 -136h134z" />
    <glyph glyph-name="fraction" unicode="&#x2044;" horiz-adv-x="89" 
d="M226 634h64l-435 -644h-63z" />
    <glyph glyph-name="fraction" unicode="&#x2215;" horiz-adv-x="89" 
d="M226 634h64l-435 -644h-63z" />
    <glyph glyph-name="yen" unicode="&#xa5;" 
d="M19 634h116l159 -295l166 295h102l-175 -264h130v-45h-159l-31 -46v-29h190v-45h-190v-205h-100v205h-173v45h173v25l-29 50h-144v45h118z" />
    <glyph glyph-name="florin" unicode="&#x192;" 
d="M304 346h102l-13 -59h-102l-31 -145c-35 -166 -42 -187 -78 -235c-35 -47 -90 -77 -142 -77c-40 0 -79 19 -79 40v4c0 4 1 7 6 12l33 39h20c22 -19 32 -24 47 -24c19 0 34 12 46 40c12 25 16 43 37 139l45 207h-84l13 59h83l8 33c24 112 38 145 79 188
c47 49 109 79 166 79c61 0 113 -33 113 -72c0 -13 -5 -22 -14 -25l-49 -19l-21 4c-9 27 -29 40 -61 40c-30 0 -55 -13 -70 -38c-13 -20 -24 -53 -38 -119z" />
    <glyph glyph-name="section" unicode="&#xa7;" 
d="M402 529h-22c-21 33 -49 47 -90 47c-61 0 -100 -35 -100 -90c0 -49 19 -67 132 -132c108 -61 148 -108 148 -172c0 -50 -29 -97 -85 -139c35 -32 50 -64 50 -106s-22 -89 -59 -127c-44 -45 -104 -70 -169 -70c-50 0 -97 15 -125 41c-8 6 -9 9 -9 18c0 14 1 17 5 23l33 46
h17c24 -34 65 -53 111 -53c64 0 108 37 108 93c0 19 -6 38 -18 52c-17 22 -30 30 -110 76c-102 58 -142 105 -142 168c0 49 25 92 78 137c-36 34 -53 70 -53 113c0 105 100 195 218 195c52 0 98 -17 122 -46c5 -6 6 -10 6 -21c0 -12 -1 -13 -7 -19zM199 316
c-26 -25 -38 -49 -38 -77s12 -51 38 -74c18 -16 36 -28 95 -63c19 -12 30 -18 48 -30c27 22 40 47 40 76c0 28 -12 52 -37 74c-16 15 -24 20 -100 65c-24 15 -31 19 -46 29z" />
    <glyph glyph-name="currency" unicode="&#xa4;" 
d="M163 176l-70 -70c-8 -8 -8 -8 -11 -8c-2 0 -6 2 -8 5l-24 24c-3 3 -5 6 -5 8s2 5 7 10l70 70c-25 36 -36 70 -36 110s11 75 36 110l-70 70c-3 4 -7 9 -7 11s2 6 4 8l24 24c3 3 6 4 8 4c3 0 6 -2 10 -7l72 -71c34 24 70 36 109 36c40 0 75 -12 110 -35l70 70c8 7 8 8 11 8
c2 0 4 -1 8 -5l24 -24c4 -4 5 -6 5 -8s-2 -5 -7 -11l-71 -70c26 -36 37 -71 37 -110c0 -42 -13 -79 -37 -110l70 -70c7 -7 8 -8 8 -11c0 -2 -1 -4 -5 -8l-24 -24c-3 -2 -6 -4 -8 -4s-6 3 -11 7l-70 71c-35 -24 -71 -35 -110 -35c-38 0 -73 11 -109 35zM274 434
c-60 0 -108 -48 -108 -108s47 -109 107 -109c58 0 106 49 106 109c0 58 -48 108 -105 108z" />
    <glyph glyph-name="quotesingle" unicode="'" horiz-adv-x="359" 
d="M156 343l-18 221v70h84v-70l-18 -221h-48z" />
    <glyph glyph-name="quotedblleft" unicode="&#x201c;" horiz-adv-x="467" 
d="M414 636v-5c-59 -44 -89 -84 -89 -120c0 -14 7 -22 23 -28c30 -11 41 -24 41 -47c0 -29 -24 -51 -56 -51c-46 0 -80 41 -80 95c0 51 27 104 77 150c17 15 49 38 54 38c1 0 3 -2 5 -3zM214 636v-5c-58 -43 -89 -84 -89 -119c0 -15 7 -23 25 -30c29 -11 39 -23 39 -46
c0 -29 -24 -51 -56 -51c-46 0 -80 41 -80 95c0 51 27 104 77 150c17 15 49 38 54 38c1 0 3 -1 5 -3z" />
    <glyph glyph-name="guillemotleft" unicode="&#xab;" horiz-adv-x="485" 
d="M441 76l-35 -20l-180 181l180 183l35 -21l-109 -162zM259 76l-35 -20l-180 181l180 183l35 -21l-109 -162z" />
    <glyph glyph-name="guilsinglleft" unicode="&#x2039;" horiz-adv-x="304" 
d="M259 76l-35 -20l-180 181l180 183l35 -21l-109 -162z" />
    <glyph glyph-name="guilsinglright" unicode="&#x203a;" horiz-adv-x="304" 
d="M44 400l35 20l180 -181l-180 -183l-35 21l109 162z" />
    <glyph glyph-name="endash" unicode="&#x2013;" horiz-adv-x="467" 
d="M37 264h393v-57h-393v57z" />
    <glyph glyph-name="dagger" unicode="&#x2020;" 
d="M229 634h86v-66l-12 -177l128 9h57v-77h-57l-127 12l9 -162l-10 -426h-62l-11 426l10 162l-127 -12h-57v77h57l127 -9l-11 177v66z" />
    <glyph glyph-name="daggerdbl" unicode="&#x2021;" horiz-adv-x="545" 
d="M229 634h86v-66l-12 -167l136 11h49v-77h-49l-136 10l11 -127l-11 -149l136 11h49v-77h-49l-136 10l12 -178v-82h-85v82l12 178l-136 -10h-49v77h49l136 -11l-12 149l12 127l-136 -10h-49v77h49l136 -11l-13 167v66z" />
    <glyph glyph-name="periodcentered" unicode="&#xb7;" horiz-adv-x="278" 
d="M138 303c35 0 63 -28 63 -63s-29 -63 -64 -63c-33 0 -62 29 -62 63c0 35 28 63 63 63z" />
    <glyph glyph-name="periodcentered" unicode="&#x2219;" horiz-adv-x="278" 
d="M138 303c35 0 63 -28 63 -63s-29 -63 -64 -63c-33 0 -62 29 -62 63c0 35 28 63 63 63z" />
    <glyph glyph-name="paragraph" unicode="&#xb6;" horiz-adv-x="652" 
d="M489 686h44v-110h9c74 1 111 14 127 44h14l15 -36c1 -2 2 -7 2 -10c0 -11 -17 -22 -44 -27c-31 -6 -31 -6 -123 -7v-562c0 -97 -11 -134 -50 -165c-23 -19 -62 -34 -87 -34c-11 0 -14 3 -17 19l-7 35l9 14c73 8 108 51 108 132v66c-41 -3 -68 -4 -100 -4
c-80 0 -136 8 -183 28c-106 43 -166 133 -166 249c0 86 35 161 94 205c53 39 118 56 218 56c5 0 51 -1 137 -3v110zM489 540h-76c-25 0 -36 -2 -43 -9c-9 -10 -9 -11 -10 -75v-287c1 -66 1 -70 9 -80c7 -8 16 -11 39 -11h81v462z" />
    <glyph glyph-name="bullet" unicode="&#x2022;" horiz-adv-x="634" 
d="M320 454c71 0 130 -60 130 -132c0 -73 -59 -132 -132 -132c-72 0 -132 59 -132 132s59 132 134 132z" />
    <glyph glyph-name="quotesinglbase" unicode="&#x201a;" horiz-adv-x="267" 
d="M53 -141v6c34 25 50 40 64 59c15 20 25 45 25 60c0 14 -7 22 -23 29c-31 11 -41 23 -41 46c0 29 24 51 56 51c46 0 80 -40 80 -95c0 -51 -27 -103 -77 -149c-17 -15 -49 -38 -54 -38c-1 0 -3 1 -5 3z" />
    <glyph glyph-name="quotedblbase" unicode="&#x201e;" horiz-adv-x="467" 
d="M53 -141v6c34 25 50 40 64 59c15 20 25 45 25 60c0 14 -7 22 -23 29c-31 11 -41 23 -41 46c0 29 24 51 56 51c46 0 80 -40 80 -95c0 -51 -27 -103 -77 -149c-17 -15 -49 -38 -54 -38c-1 0 -3 1 -5 3zM253 -141v6c34 25 50 40 64 59c15 20 25 45 25 60c0 14 -6 22 -25 29
c-28 11 -39 24 -39 46c0 29 24 51 56 51c46 0 80 -40 80 -95c0 -51 -27 -103 -77 -149c-17 -15 -49 -38 -54 -38c-1 0 -3 2 -5 3z" />
    <glyph glyph-name="quotedblright" unicode="&#x201d;" horiz-adv-x="467" 
d="M53 411v6c57 42 89 84 89 119c0 14 -7 23 -23 29c-31 11 -41 23 -41 47c0 29 24 50 56 50c46 0 80 -40 80 -95c0 -52 -27 -104 -77 -150c-17 -15 -49 -38 -54 -38c-1 0 -1 0 -5 4zM253 411v6c57 42 89 84 89 119c0 14 -7 22 -23 29c-31 12 -41 23 -41 47
c0 28 24 50 56 50c46 0 80 -41 80 -95c0 -51 -28 -104 -77 -150c-17 -15 -49 -38 -54 -38c-1 0 -2 1 -5 4z" />
    <glyph glyph-name="guillemotright" unicode="&#xbb;" horiz-adv-x="485" 
d="M44 400l35 20l180 -181l-180 -183l-35 21l109 162zM226 400l34 20l181 -181l-181 -183l-34 21l108 162z" />
    <glyph glyph-name="ellipsis" unicode="&#x2026;" horiz-adv-x="833" 
d="M138 114c35 0 63 -28 63 -64c0 -34 -28 -62 -64 -62c-34 0 -62 29 -62 63c0 35 28 63 63 63zM416 114c35 0 63 -28 63 -63s-28 -63 -64 -63c-33 0 -62 29 -62 62c0 35 28 64 63 64zM693 114c35 0 63 -28 63 -63s-28 -63 -64 -63c-34 0 -62 29 -62 63c0 35 28 63 63 63z
" />
    <glyph glyph-name="perthousand" unicode="&#x2030;" horiz-adv-x="1074" 
d="M177 646c90 0 149 -65 149 -165c0 -108 -60 -175 -157 -175c-91 0 -150 65 -150 167c0 106 61 173 158 173zM174 596c-46 0 -76 -48 -76 -122s28 -118 73 -118c47 0 76 47 76 122c0 72 -29 118 -73 118zM542 634h64l-436 -645h-63zM550 328c91 0 149 -65 149 -165
c0 -108 -60 -175 -157 -175c-91 0 -150 65 -150 167c0 106 61 173 158 173zM547 278c-46 0 -76 -48 -76 -123c0 -73 28 -117 74 -117s75 47 75 122c0 72 -29 118 -73 118zM906 328c90 0 149 -65 149 -165c0 -108 -61 -175 -157 -175c-92 0 -151 65 -151 167
c0 106 61 173 159 173zM903 278c-47 0 -77 -48 -77 -122s28 -118 74 -118c47 0 76 47 76 122c0 71 -29 118 -73 118z" />
    <glyph glyph-name="questiondown" unicode="&#xbf;" horiz-adv-x="430" 
d="M345 -119l19 -51c3 -7 3 -9 3 -13c0 -11 -2 -15 -9 -19c-21 -13 -65 -23 -98 -23c-111 0 -208 95 -208 203c0 37 14 72 37 96c19 19 35 30 91 59c73 39 74 41 76 131h53c1 -10 2 -23 2 -24c2 -32 4 -67 4 -80c0 -28 -6 -44 -21 -59s-16 -16 -74 -51
c-75 -44 -90 -60 -90 -99c0 -54 45 -94 106 -94c29 0 57 8 86 24h23zM283 433c33 0 61 -28 61 -61c0 -35 -28 -63 -62 -63s-62 28 -62 63c0 34 28 61 63 61z" />
    <glyph glyph-name="grave" unicode="`" horiz-adv-x="500" 
d="M175 642l119 -169l-38 -7l-162 136v18l75 24z" />
    <glyph glyph-name="acute" unicode="&#xb4;" horiz-adv-x="500" 
d="M315 642l6 2l75 -24v-18l-162 -136l-38 7z" />
    <glyph glyph-name="circumflex" unicode="&#x2c6;" horiz-adv-x="500" 
d="M220 642h48l114 -161l-31 -17l-107 95l-108 -95l-30 17z" />
    <glyph glyph-name="tilde" unicode="&#x2dc;" horiz-adv-x="500" 
d="M378 622h5l25 -21c-25 -67 -63 -105 -107 -105c-21 0 -37 7 -71 30c-28 19 -38 24 -52 24c-22 0 -39 -17 -59 -57h-5l-26 20c32 74 64 107 106 107c20 0 25 -2 71 -32c24 -15 40 -22 51 -22c24 0 45 19 62 56z" />
    <glyph glyph-name="macron" unicode="&#xaf;" horiz-adv-x="500" 
d="M118 588h262v-69h-262v69z" />
    <glyph glyph-name="macron" unicode="&#x2c9;" horiz-adv-x="500" 
d="M118 588h262v-69h-262v69z" />
    <glyph glyph-name="breve" unicode="&#x2d8;" horiz-adv-x="500" 
d="M116 628h42c9 -51 39 -77 90 -77c50 0 81 27 90 77h41c1 -5 1 -11 1 -12c0 -77 -56 -133 -132 -133c-77 0 -132 56 -132 135v10z" />
    <glyph glyph-name="dotaccent" unicode="&#x2d9;" horiz-adv-x="500" 
d="M249 600c27 0 50 -23 50 -51c0 -27 -23 -49 -50 -49s-50 23 -50 50s23 50 50 50z" />
    <glyph glyph-name="dieresis" unicode="&#xa8;" horiz-adv-x="500" 
d="M149 597c27 0 48 -21 48 -48c0 -26 -21 -47 -48 -47c-25 0 -47 22 -47 47c0 26 21 48 47 48zM343 597c26 0 47 -21 47 -48c0 -26 -21 -47 -48 -47c-25 0 -47 22 -47 47c0 27 21 48 48 48z" />
    <glyph glyph-name="ring" unicode="&#x2da;" horiz-adv-x="500" 
d="M249 671c60 0 108 -44 108 -100s-47 -98 -109 -98c-59 0 -106 44 -106 98c0 56 48 100 107 100zM250 627c-29 0 -51 -24 -51 -56c0 -33 22 -57 51 -57c30 0 50 22 50 56c0 33 -21 57 -50 57z" />
    <glyph glyph-name="cedilla" unicode="&#xb8;" horiz-adv-x="500" 
d="M255 0h46l-35 -57v-9c39 -23 52 -38 52 -62c0 -48 -59 -100 -115 -100c-29 0 -64 18 -64 33c0 4 1 6 4 10l23 23h13c14 -17 26 -23 43 -23c19 0 35 13 35 29s-14 28 -61 53v22z" />
    <glyph glyph-name="hungarumlaut" unicode="&#x2dd;" horiz-adv-x="500" 
d="M250 639l6 2l60 -18l2 -18l-137 -147l-38 4zM387 639l6 2l60 -18l1 -18l-136 -147l-38 4z" />
    <glyph glyph-name="ogonek" unicode="&#x2db;" horiz-adv-x="500" 
d="M394 0h51c-51 -53 -69 -83 -69 -113c0 -25 18 -39 51 -39c12 0 26 2 40 5h8l-2 -11c-2 -11 -4 -16 -12 -21c-13 -9 -46 -17 -69 -17c-50 0 -85 31 -85 74c0 39 26 76 87 122z" />
    <glyph glyph-name="caron" unicode="&#x2c7;" horiz-adv-x="500" 
d="M268 473h-48l-114 161l30 18l108 -95l107 95l31 -18z" />
    <glyph glyph-name="emdash" unicode="&#x2014;" horiz-adv-x="737" 
d="M36 264h666v-57h-666v57z" />
    <glyph glyph-name="AE" unicode="&#xc6;" horiz-adv-x="903" 
d="M405 634h467v-64h-327v-202h291v-65h-291v-235h333v-68h-431v235h-226l-154 -235h-104zM447 295v277h-7l-180 -277h187z" />
    <glyph glyph-name="ordfeminine" unicode="&#xaa;" horiz-adv-x="322" 
d="M47 443l-3 32v3c0 16 70 38 123 38c71 0 98 -24 98 -86v-7l-2 -100v-12c0 -11 2 -13 12 -13c11 0 21 3 39 10l7 -4v-26c0 -6 -1 -8 -8 -11c-19 -10 -52 -19 -71 -19c-18 0 -32 8 -38 21c-39 -13 -76 -21 -101 -21c-46 0 -74 29 -74 74c0 54 29 69 168 85
c-1 39 -1 39 -4 45c-5 12 -20 18 -45 18c-36 0 -56 -8 -77 -32zM196 308v61c-23 -3 -50 -8 -73 -14c-20 -5 -26 -11 -26 -26c0 -22 11 -31 36 -31c17 0 36 3 63 10z" />
    <glyph glyph-name="Lslash" unicode="&#x141;" horiz-adv-x="489" 
d="M91 244l-73 -54v69l73 55v320h103v-261l135 101v-70l-135 -100v-236h309v-68h-412v244z" />
    <glyph glyph-name="Oslash" unicode="&#xd8;" horiz-adv-x="785" 
d="M579 608l52 72h60l-72 -97c79 -62 122 -154 122 -258c0 -198 -150 -340 -357 -340c-63 0 -119 14 -173 42l-57 -79h-59l76 104c-80 63 -126 158 -126 261c0 190 156 336 358 336c67 0 125 -13 176 -41zM232 125l290 416c-34 27 -83 42 -134 42
c-135 0 -231 -106 -231 -255c0 -78 25 -145 75 -203zM558 509l-290 -415c44 -28 87 -42 134 -42c131 0 227 108 227 255c0 75 -24 144 -71 202z" />
    <glyph glyph-name="OE" unicode="&#x152;" horiz-adv-x="989" 
d="M539 634h419v-64h-325v-202h288v-65h-288v-235h331v-68h-425v22c-53 -22 -108 -33 -165 -33c-190 0 -329 139 -329 331s147 329 351 329c51 0 92 -8 143 -27v12zM536 94v453c-47 27 -91 39 -142 39c-139 0 -237 -104 -237 -250c0 -162 103 -282 243 -282
c49 0 89 12 136 40z" />
    <glyph glyph-name="ordmasculine" unicode="&#xba;" horiz-adv-x="359" 
d="M188 516c83 0 142 -54 142 -130c0 -81 -66 -140 -157 -140c-84 0 -144 55 -144 132c0 81 65 138 159 138zM178 472c-45 0 -74 -31 -74 -78c0 -58 35 -103 80 -103c42 0 71 34 71 84c0 56 -33 97 -77 97z" />
    <glyph glyph-name="ae" unicode="&#xe6;" horiz-adv-x="701" 
d="M666 233l-272 -31c5 -103 40 -146 120 -146c46 0 85 12 134 42h7l13 -39c1 -1 1 -2 1 -3c0 -5 -5 -9 -26 -21c-57 -33 -111 -49 -170 -49c-60 0 -101 18 -134 59c-79 -41 -125 -56 -177 -56c-75 0 -116 41 -116 116c0 58 25 90 85 111c30 10 63 17 171 38
c-1 57 -1 57 -4 72c-6 29 -29 43 -71 43c-51 0 -95 -19 -131 -56l-21 7l-7 55l-1 6c0 5 5 9 25 18c46 21 105 33 157 33c58 0 91 -13 116 -44c39 31 79 45 133 45c113 0 168 -66 168 -200zM394 256l168 22c-4 64 -32 100 -80 100c-56 0 -86 -41 -88 -122zM301 200
c-49 -8 -85 -16 -112 -27c-33 -13 -44 -28 -44 -58c0 -39 19 -59 57 -59c34 0 76 14 112 38c-10 36 -12 52 -13 106z" />
    <glyph glyph-name="dotlessi" unicode="&#x131;" horiz-adv-x="254" 
d="M79 422h95v-422h-95v422z" />
    <glyph glyph-name="lslash" unicode="&#x142;" horiz-adv-x="267" 
d="M101 302l-88 -66v66l88 66v323h95v-270l93 69v-66l-93 -68v-356h-95v302z" />
    <glyph glyph-name="oslash" unicode="&#xf8;" horiz-adv-x="555" 
d="M400 409l35 49h50l-51 -70c51 -39 79 -100 79 -170c0 -134 -103 -231 -246 -231c-40 0 -71 7 -108 23l-41 -56h-48l55 77c-54 41 -83 102 -83 176c0 133 102 226 246 226c43 0 77 -7 112 -24zM183 102l167 246c-21 18 -46 27 -77 27c-78 0 -131 -58 -131 -143
c0 -47 13 -88 41 -130zM377 317l-167 -245c23 -18 46 -26 74 -26c76 0 129 63 129 152c0 45 -12 84 -36 119z" />
    <glyph glyph-name="oe" unicode="&#x153;" horiz-adv-x="811" 
d="M778 229l-273 -32c5 -91 50 -141 128 -141c43 0 75 10 121 39h9l13 -37c0 -2 1 -4 1 -4c1 -4 -4 -8 -16 -16c-51 -33 -104 -50 -156 -50c-70 0 -119 26 -155 83c-61 -61 -112 -84 -189 -84c-127 0 -219 91 -219 216c0 134 102 230 245 230c75 0 125 -22 172 -75
c40 50 89 75 150 75c65 0 118 -30 146 -82c16 -31 23 -67 23 -122zM504 250l171 23c-3 66 -32 105 -79 105c-54 0 -88 -48 -92 -128zM278 373c-81 0 -134 -56 -134 -143c0 -102 62 -182 141 -182c77 0 129 63 129 157c0 98 -56 168 -136 168z" />
    <glyph glyph-name="germandbls" unicode="&#xdf;" horiz-adv-x="563" 
d="M69 0v431c0 108 12 151 54 194c45 45 110 68 192 68c106 0 163 -45 163 -128c0 -61 -24 -93 -103 -138c-49 -27 -64 -45 -64 -75c0 -19 8 -35 22 -48c13 -10 24 -16 75 -41c91 -42 122 -77 122 -134c0 -84 -75 -141 -187 -141c-38 0 -96 10 -112 19c-4 2 -6 4 -7 10
l-8 60l22 12c35 -27 75 -41 114 -41c47 0 78 26 78 65c0 33 -15 48 -77 77c-104 49 -131 78 -131 140c0 52 19 76 97 128c51 32 66 55 66 96c0 50 -31 75 -93 75c-56 0 -97 -20 -113 -57c-13 -28 -15 -47 -15 -139v-433h-95z" />
    <glyph glyph-name="onesuperior" unicode="&#xb9;" horiz-adv-x="341" 
d="M192 637h34v-383h-73v310l-83 -36h-16v44z" />
    <glyph glyph-name="logicalnot" unicode="&#xac;" horiz-adv-x="476" 
d="M350 0v166h-318v87h412v-253h-94z" />
    <glyph glyph-name="mu" unicode="&#xb5;" horiz-adv-x="535" 
d="M462 422v-422h-89v57c-70 -53 -102 -68 -150 -68c-27 0 -47 6 -66 20c1 -34 2 -58 2 -101v-167h-89v681h91v-220c0 -73 1 -88 11 -105c11 -20 33 -32 62 -32c37 0 86 20 137 56v301h91z" />
    <glyph glyph-name="mu" unicode="&#x3bc;" horiz-adv-x="535" 
d="M462 422v-422h-89v57c-70 -53 -102 -68 -150 -68c-27 0 -47 6 -66 20c1 -34 2 -58 2 -101v-167h-89v681h91v-220c0 -73 1 -88 11 -105c11 -20 33 -32 62 -32c37 0 86 20 137 56v301h91z" />
    <glyph glyph-name="trademark" unicode="&#x2122;" horiz-adv-x="741" 
d="M-27 634h312v-46h-122v-271h-69v271h-121v46zM317 634h76l103 -219l113 219h75l10 -317h-67l-5 250l-126 -245l-20 -3l-120 250l-4 -252h-54z" />
    <glyph glyph-name="Eth" unicode="&#xd0;" horiz-adv-x="737" 
d="M91 301h-86v61h86v272c131 5 195 7 242 7c131 0 197 -16 255 -63c67 -54 104 -141 104 -244c0 -116 -48 -213 -134 -272c-64 -44 -142 -62 -272 -62h-195v301zM194 301v-239h113c93 0 157 18 199 56c47 43 74 119 74 208c0 98 -32 173 -91 214c-42 30 -86 40 -171 40
c-25 0 -66 -1 -124 -4v-214h194v-61h-194z" />
    <glyph glyph-name="onehalf" unicode="&#xbd;" horiz-adv-x="770" 
d="M179 637h34v-383h-73v310l-83 -36h-16v44zM532 634h63l-434 -644h-64zM713 60l-17 -60h-264v34c156 146 189 188 189 241c0 39 -21 61 -58 61c-47 0 -72 -18 -89 -61c-1 -5 -3 -5 -9 -5h-5c-7 0 -7 0 -10 9l-6 25c-2 7 -2 8 -2 9c0 6 11 21 22 32c30 28 69 43 115 43
c73 0 118 -39 118 -103c0 -39 -16 -74 -53 -114c-29 -30 -43 -43 -124 -111h193z" />
    <glyph glyph-name="plusminus" unicode="&#xb1;" horiz-adv-x="545" 
d="M240 349v164c0 14 2 16 16 16h32c16 0 16 0 16 -18v-162h164c14 0 16 -2 16 -16v-32c0 -15 -1 -16 -18 -16h-162v-164c0 -15 -1 -16 -16 -16h-32c-13 0 -16 3 -16 16v164h-164c-14 0 -16 2 -16 16v32c0 14 2 16 16 16h164zM76 64h392c14 0 16 -2 16 -16v-32
c0 -14 -2 -16 -18 -16h-390c-14 0 -16 2 -16 16v32c0 14 2 16 16 16z" />
    <glyph glyph-name="Thorn" unicode="&#xde;" horiz-adv-x="559" 
d="M91 634h103v-101c49 3 72 4 98 4c78 0 131 -10 169 -33c51 -31 82 -89 82 -157c0 -70 -33 -130 -92 -167c-46 -28 -99 -39 -195 -39c-22 0 -37 0 -62 1v-142h-103v634zM194 472v-265c26 -2 40 -3 65 -3c121 0 174 42 174 138c0 56 -21 97 -61 116c-22 11 -54 16 -104 16
c-19 0 -55 -1 -74 -2z" />
    <glyph glyph-name="onequarter" unicode="&#xbc;" horiz-adv-x="770" 
d="M188 637h34v-383h-73v310l-83 -36h-16v44zM535 634h64l-435 -644h-63zM709 145v-51h-58v-94h-69v94h-190v43l206 244h53v-236h58zM582 145v154l-126 -154h126z" />
    <glyph glyph-name="divide" unicode="&#xf7;" horiz-adv-x="545" 
d="M271 526c31 0 57 -26 57 -57c0 -32 -26 -57 -58 -57c-30 0 -56 26 -56 57s26 57 57 57zM271 225c32 0 57 -26 57 -57c0 -32 -26 -57 -58 -57c-30 0 -56 26 -56 57s25 57 57 57zM76 349h392c14 0 16 -2 16 -16v-32c0 -15 -1 -16 -18 -16h-390c-14 0 -16 2 -16 16v32
c0 14 2 16 16 16z" />
    <glyph glyph-name="brokenbar" unicode="&#xa6;" horiz-adv-x="476" 
d="M191 634h94v-322h-94v322zM191 146h94v-305h-94v305z" />
    <glyph glyph-name="degree" unicode="&#xb0;" 
d="M272 646c86 0 156 -70 156 -157c0 -86 -70 -155 -158 -155c-83 0 -154 71 -154 155c0 87 70 157 156 157zM272 585c-52 0 -94 -43 -94 -96c0 -51 43 -94 93 -94c53 0 95 42 95 95c0 52 -42 95 -94 95z" />
    <glyph glyph-name="thorn" unicode="&#xfe;" horiz-adv-x="555" 
d="M168 5v-256c0 -7 -1 -8 -9 -8h-78c-7 0 -8 1 -8 8v934c0 7 1 8 8 8h77c9 0 9 0 9 -8v-297c73 37 109 47 163 47c110 0 183 -77 183 -195c0 -138 -113 -245 -260 -245c-26 0 -48 3 -85 12zM167 329v-241c39 -18 67 -25 104 -25c91 0 144 56 144 151c0 90 -51 148 -131 148
c-39 0 -76 -10 -117 -33z" />
    <glyph glyph-name="threequarters" unicode="&#xbe;" horiz-adv-x="770" 
d="M108 427l-11 34c93 36 111 51 111 88c0 29 -19 46 -49 46c-35 0 -68 -19 -78 -45c-2 -4 -3 -5 -9 -5h-6c-7 0 -8 1 -10 8l-7 25c-2 5 -2 6 -2 8c0 4 8 13 21 22c31 23 64 34 105 34c66 0 108 -31 108 -81c0 -34 -18 -58 -60 -82c56 -11 88 -47 88 -99
c0 -77 -68 -133 -163 -133c-64 0 -119 30 -119 65c0 8 2 12 7 15l20 9c6 4 7 4 12 4h7c5 0 7 -1 10 -7c13 -28 38 -43 71 -43c46 0 80 34 80 81c0 41 -27 67 -69 67c-15 0 -25 -2 -57 -11zM582 634h64l-435 -644h-63zM737 145v-51h-58v-94h-69v94h-190v43l206 244h53v-236
h58zM610 145v154l-126 -154h126z" />
    <glyph glyph-name="twosuperior" unicode="&#xb2;" horiz-adv-x="341" 
d="M312 313l-17 -60h-264v34c49 46 107 103 135 135c39 44 53 73 53 107c0 39 -20 61 -57 61c-46 0 -74 -20 -89 -62c-1 -4 -2 -5 -8 -5h-6c-7 0 -7 1 -10 9l-6 25c-1 3 -2 8 -2 9c0 6 11 21 22 33c29 28 69 43 114 43c74 0 119 -39 119 -103c0 -39 -17 -75 -53 -114
c-31 -33 -46 -47 -124 -112h193z" />
    <glyph glyph-name="registered" unicode="&#xae;" horiz-adv-x="766" 
d="M244 140v361c16 1 28 1 28 1l39 1l39 1h13c55 0 82 -4 103 -17c28 -17 45 -47 45 -82c0 -47 -28 -81 -82 -100c56 -101 92 -139 136 -142l-6 -21c-1 -4 -15 -7 -33 -7c-39 0 -72 14 -96 41c-21 22 -29 35 -74 113c-10 -1 -17 -1 -24 -1h-12v-148h-76zM320 458v-126
c11 -1 17 -1 27 -1c58 0 85 22 85 69c0 43 -22 60 -78 60c-9 0 -23 -1 -34 -2zM388 645c181 0 333 -150 333 -328c0 -181 -151 -328 -338 -328c-188 0 -338 147 -338 330c0 181 153 326 343 326zM387 591c-85 0 -155 -30 -211 -91c-45 -49 -71 -115 -71 -182
c0 -156 123 -280 278 -280c154 0 278 125 278 278c0 151 -124 275 -274 275z" />
    <glyph glyph-name="minus" unicode="&#x2212;" horiz-adv-x="545" 
d="M76 349h392c14 0 16 -2 16 -16v-32c0 -15 -1 -16 -18 -16h-390c-14 0 -16 2 -16 16v32c0 14 2 16 16 16z" />
    <glyph glyph-name="eth" unicode="&#xf0;" horiz-adv-x="555" 
d="M238 658l61 33l45 -75l81 44l25 -45l-81 -43c109 -188 144 -276 144 -361c0 -127 -106 -224 -245 -224c-133 0 -226 90 -226 219c0 130 102 227 239 227c34 0 60 -6 87 -21c-14 31 -43 89 -63 123l-80 -42l-25 45l81 42c-19 37 -28 52 -43 78zM275 373
c-79 0 -131 -56 -131 -142c0 -103 62 -183 140 -183c75 0 127 62 127 151c0 100 -58 174 -136 174z" />
    <glyph glyph-name="multiply" unicode="&#xd7;" 
d="M226 317l-131 131c-4 5 -7 9 -7 11s3 7 8 12l22 22c7 7 10 9 12 9s3 -1 13 -10l129 -129l131 131c4 4 9 7 11 7s7 -3 11 -7l23 -23c5 -5 8 -10 8 -12c0 -3 -2 -5 -9 -12l-130 -130l131 -131c5 -4 8 -8 8 -10s-4 -8 -8 -12l-23 -23c-4 -5 -9 -8 -12 -8c-2 0 -5 2 -10 8
l-131 131l-131 -131c-6 -6 -8 -8 -11 -8c-2 0 -6 2 -12 8l-22 23c-5 4 -8 9 -8 12c0 2 3 6 7 10z" />
    <glyph glyph-name="threesuperior" unicode="&#xb3;" horiz-adv-x="341" 
d="M100 427l-11 34c93 36 111 51 111 88c0 29 -19 46 -49 46c-35 0 -68 -19 -78 -45c-2 -4 -3 -5 -9 -5h-6c-7 0 -8 1 -10 8l-7 25c-2 5 -2 6 -2 8c0 4 8 13 21 22c31 23 64 34 105 34c66 0 108 -31 108 -81c0 -34 -18 -58 -60 -82c56 -11 88 -47 88 -99
c0 -77 -68 -133 -163 -133c-64 0 -119 30 -119 65c0 8 2 12 7 15l20 9c6 4 7 4 12 4h7c5 0 7 -1 10 -7c13 -28 38 -43 71 -43c46 0 80 34 80 81c0 41 -27 67 -69 67c-15 0 -25 -2 -57 -11z" />
    <glyph glyph-name="copyright" unicode="&#xa9;" horiz-adv-x="766" 
d="M531 481l-3 -29c-1 -9 -1 -9 -4 -11l-4 -3l-4 -1c-1 0 -1 0 -9 3c-24 9 -66 16 -95 16c-75 0 -121 -51 -121 -136c0 -84 49 -140 123 -140c31 0 69 7 92 17c7 3 8 3 9 3l4 -1l3 -3c3 -2 4 -3 4 -5l-1 -4v-4l-5 -31c-1 -4 -3 -7 -8 -8c-22 -7 -74 -14 -107 -14
c-48 0 -89 10 -120 30c-49 32 -79 89 -79 150c0 65 32 123 86 158c37 25 81 36 137 36c35 0 81 -6 98 -14c4 -1 6 -5 5 -7zM388 645c181 0 333 -150 333 -328c0 -181 -151 -328 -338 -328c-188 0 -338 147 -338 330c0 181 153 326 343 326zM387 591c-85 0 -155 -30 -211 -91
c-45 -49 -71 -115 -71 -182c0 -156 123 -280 278 -280c154 0 278 125 278 278c0 151 -124 275 -274 275z" />
    <glyph glyph-name="Aacute" unicode="&#xc1;" horiz-adv-x="633" 
d="M301 634h78l252 -634h-113l-73 199h-264l-81 -199h-97zM422 259l-102 274l-113 -274h215zM419 857h9l75 -37l-3 -19l-195 -117l-39 13z" />
    <glyph glyph-name="Acircumflex" unicode="&#xc2;" horiz-adv-x="633" 
d="M301 634h78l252 -634h-113l-73 199h-264l-81 -199h-97zM422 259l-102 274l-113 -274h215zM309 860h46l142 -161l-34 -22l-131 101l-131 -101l-33 22z" />
    <glyph glyph-name="Adieresis" unicode="&#xc4;" horiz-adv-x="633" 
d="M301 634h78l252 -634h-113l-73 199h-264l-81 -199h-97zM422 259l-102 274l-113 -274h215zM227 803c27 0 50 -23 50 -51s-23 -50 -51 -50c-27 0 -50 23 -50 50c0 28 23 51 51 51zM439 803c27 0 50 -23 50 -51s-23 -50 -51 -50c-27 0 -50 23 -50 50c0 28 23 51 51 51z" />
    <glyph glyph-name="Agrave" unicode="&#xc0;" horiz-adv-x="633" 
d="M301 634h78l252 -634h-113l-73 199h-264l-81 -199h-97zM422 259l-102 274l-113 -274h215zM242 857l153 -160l-39 -13l-195 117l-3 19l76 37h8z" />
    <glyph glyph-name="Aring" unicode="&#xc5;" horiz-adv-x="633" 
d="M301 634h78l252 -634h-113l-73 199h-264l-81 -199h-97zM422 259l-102 274l-113 -274h215zM339 884c62 0 111 -46 111 -103s-49 -101 -113 -101c-60 0 -109 45 -109 101c0 57 49 103 111 103zM340 839c-31 0 -53 -24 -53 -58c0 -33 23 -58 53 -58s51 23 51 57
s-21 59 -51 59z" />
    <glyph glyph-name="Atilde" unicode="&#xc3;" horiz-adv-x="633" 
d="M301 634h78l252 -634h-113l-73 199h-264l-81 -199h-97zM422 259l-102 274l-113 -274h215zM478 819h6l27 -18c-28 -63 -67 -97 -114 -97c-21 0 -37 5 -75 22c-31 14 -40 17 -54 17c-24 0 -42 -12 -63 -41h-5l-28 17c35 70 68 98 113 98c20 0 26 -2 75 -23
c27 -12 41 -16 54 -16c25 0 47 14 64 41z" />
    <glyph glyph-name="Ccedilla" unicode="&#xc7;" horiz-adv-x="644" 
d="M420 -11l-30 -47v-10c40 -24 53 -39 53 -64c0 -50 -60 -103 -118 -103c-29 0 -65 19 -65 34c0 4 1 7 4 10l23 24h14c13 -17 26 -24 43 -24c20 0 36 14 36 31c0 16 -16 29 -62 53v23l53 73c-64 3 -104 12 -145 30c-111 50 -181 160 -181 286c0 113 56 217 151 278
c65 43 144 63 242 63c63 0 147 -12 176 -25c7 -3 9 -6 9 -13v-3l-6 -51c-1 -7 -2 -8 -7 -11l-8 -3c-1 -1 -4 -2 -6 -2s-2 0 -17 7c-49 24 -116 38 -177 38c-150 0 -245 -101 -245 -261s102 -272 249 -272c67 0 134 17 185 47c1 1 2 1 3 1l3 -1l3 -2l7 -5c5 -3 5 -3 5 -6
c0 -1 0 -1 -1 -6l-8 -50c-2 -10 -3 -12 -21 -16c-49 -14 -102 -21 -162 -23z" />
    <glyph glyph-name="Eacute" unicode="&#xc9;" horiz-adv-x="552" 
d="M91 634h429v-64h-326v-202h290v-65h-290v-235h333v-68h-436v634zM375 857h9l75 -37l-3 -19l-195 -117l-39 13z" />
    <glyph glyph-name="Ecircumflex" unicode="&#xca;" horiz-adv-x="552" 
d="M91 634h429v-64h-326v-202h290v-65h-290v-235h333v-68h-436v634zM276 860h46l142 -161l-34 -22l-131 101l-131 -101l-33 22z" />
    <glyph glyph-name="Edieresis" unicode="&#xcb;" horiz-adv-x="552" 
d="M91 634h429v-64h-326v-202h290v-65h-290v-235h333v-68h-436v634zM201 803c27 0 50 -23 50 -51s-23 -50 -51 -50c-27 0 -50 23 -50 50c0 28 23 51 51 51zM413 803c27 0 50 -23 50 -51s-23 -50 -51 -50c-27 0 -50 23 -50 50c0 28 23 51 51 51z" />
    <glyph glyph-name="Egrave" unicode="&#xc8;" horiz-adv-x="552" 
d="M91 634h429v-64h-326v-202h290v-65h-290v-235h333v-68h-436v634zM228 857l153 -160l-39 -13l-195 117l-3 19l76 37h8z" />
    <glyph glyph-name="Iacute" unicode="&#xcd;" horiz-adv-x="285" 
d="M92 634h103v-634h-103v634zM232 857h9l75 -37l-3 -19l-195 -117l-39 13z" />
    <glyph glyph-name="Icircumflex" unicode="&#xce;" horiz-adv-x="285" 
d="M91 634h103v-634h-103v634zM119 860h46l122 -161l-33 -22l-112 101l-112 -101l-33 22z" />
    <glyph glyph-name="Idieresis" unicode="&#xcf;" horiz-adv-x="285" 
d="M91 634h103v-634h-103v634zM62 803c27 0 50 -23 50 -51s-23 -50 -51 -50c-27 0 -50 23 -50 50c0 28 23 51 51 51zM222 803c27 0 50 -23 50 -51s-23 -50 -51 -50c-27 0 -50 23 -50 50c0 28 23 51 51 51z" />
    <glyph glyph-name="Igrave" unicode="&#xcc;" horiz-adv-x="285" 
d="M91 634h103v-634h-103v634zM53 857l153 -160l-39 -13l-195 117l-3 19l76 37h8z" />
    <glyph glyph-name="Ntilde" unicode="&#xd1;" horiz-adv-x="737" 
d="M83 634h75l422 -480l-12 480h82l-1 -629l-53 -16l-445 504l12 -493h-82zM519 819h6l27 -18c-28 -63 -67 -97 -114 -97c-21 0 -37 5 -75 22c-31 14 -40 17 -54 17c-24 0 -42 -12 -63 -41h-5l-28 17c35 70 68 98 113 98c20 0 26 -2 75 -23c27 -12 41 -16 54 -16
c25 0 47 14 64 41z" />
    <glyph glyph-name="Oacute" unicode="&#xd3;" horiz-adv-x="785" 
d="M407 649c196 0 334 -135 334 -325c0 -197 -150 -339 -357 -339c-83 0 -160 25 -218 72c-75 59 -121 157 -121 255c0 193 155 337 362 337zM391 583c-139 0 -234 -104 -234 -256c0 -155 107 -275 245 -275c131 0 227 108 227 255c0 158 -102 276 -238 276zM482 857h9
l75 -37l-3 -19l-195 -117l-39 13z" />
    <glyph glyph-name="Ocircumflex" unicode="&#xd4;" horiz-adv-x="785" 
d="M407 649c196 0 334 -135 334 -325c0 -197 -150 -339 -357 -339c-83 0 -160 25 -218 72c-75 59 -121 157 -121 255c0 193 155 337 362 337zM391 583c-139 0 -234 -104 -234 -256c0 -155 107 -275 245 -275c131 0 227 108 227 255c0 158 -102 276 -238 276zM370 860h46
l142 -161l-34 -22l-131 101l-131 -101l-33 22z" />
    <glyph glyph-name="Odieresis" unicode="&#xd6;" horiz-adv-x="785" 
d="M407 649c196 0 334 -135 334 -325c0 -197 -150 -339 -357 -339c-83 0 -160 25 -218 72c-75 59 -121 157 -121 255c0 193 155 337 362 337zM391 583c-139 0 -234 -104 -234 -256c0 -155 107 -275 245 -275c131 0 227 108 227 255c0 158 -102 276 -238 276zM287 803
c27 0 50 -23 50 -51s-23 -50 -51 -50c-27 0 -50 23 -50 50c0 28 23 51 51 51zM499 803c27 0 50 -23 50 -51s-23 -50 -51 -50c-27 0 -50 23 -50 50c0 28 23 51 51 51z" />
    <glyph glyph-name="Ograve" unicode="&#xd2;" horiz-adv-x="785" 
d="M407 649c196 0 334 -135 334 -325c0 -197 -150 -339 -357 -339c-83 0 -160 25 -218 72c-75 59 -121 157 -121 255c0 193 155 337 362 337zM391 583c-139 0 -234 -104 -234 -256c0 -155 107 -275 245 -275c131 0 227 108 227 255c0 158 -102 276 -238 276zM303 857
l153 -160l-39 -13l-195 117l-3 19l76 37h8z" />
    <glyph glyph-name="Otilde" unicode="&#xd5;" horiz-adv-x="785" 
d="M407 649c196 0 334 -135 334 -325c0 -197 -150 -339 -357 -339c-83 0 -160 25 -218 72c-75 59 -121 157 -121 255c0 193 155 337 362 337zM391 583c-139 0 -234 -104 -234 -256c0 -155 107 -275 245 -275c131 0 227 108 227 255c0 158 -102 276 -238 276zM533 819h6
l27 -18c-28 -63 -67 -97 -114 -97c-21 0 -37 5 -75 22c-31 14 -40 17 -54 17c-24 0 -42 -12 -63 -41h-5l-28 17c35 70 68 98 113 98c20 0 26 -2 75 -23c27 -12 41 -16 54 -16c25 0 47 14 64 41z" />
    <glyph glyph-name="Scaron" unicode="&#x160;" horiz-adv-x="507" 
d="M432 613l8 -56l1 -5c0 -2 -2 -5 -4 -6l-17 -7c-1 -1 -4 -2 -5 -2c-2 0 -6 2 -14 8c-27 20 -89 38 -132 38c-75 0 -123 -37 -123 -96c0 -27 11 -50 31 -65c21 -16 37 -24 111 -56c79 -35 107 -51 134 -78c29 -28 46 -68 46 -109c0 -112 -102 -191 -247 -191
c-47 0 -136 13 -168 24c-12 4 -15 7 -16 15l-8 61c-1 3 -1 5 -1 7s2 4 4 6l15 8c5 2 5 2 6 2c2 0 2 0 12 -7c42 -27 117 -49 171 -49c79 0 134 41 134 102c0 24 -10 47 -26 63c-18 18 -41 31 -105 58c-83 35 -113 52 -142 78c-30 27 -47 67 -47 110c0 109 95 180 239 180
c43 0 109 -9 132 -19c7 -3 10 -6 11 -14zM283 688h-46l-141 161l33 22l131 -100l131 100l34 -22z" />
    <glyph glyph-name="Uacute" unicode="&#xda;" horiz-adv-x="700" 
d="M82 634h103v-340c0 -128 4 -151 28 -182c23 -30 77 -48 141 -48c74 0 135 27 161 72c18 31 24 72 24 176v322h82l-3 -321c-1 -151 -18 -210 -71 -257c-50 -44 -127 -68 -220 -68c-101 0 -170 27 -208 81c-31 45 -37 83 -37 222v343zM441 857h9l75 -37l-3 -19l-195 -117
l-39 13z" />
    <glyph glyph-name="Ucircumflex" unicode="&#xdb;" horiz-adv-x="700" 
d="M82 634h103v-340c0 -128 4 -151 28 -182c23 -30 77 -48 141 -48c74 0 135 27 161 72c18 31 24 72 24 176v322h82l-3 -321c-1 -151 -18 -210 -71 -257c-50 -44 -127 -68 -220 -68c-101 0 -170 27 -208 81c-31 45 -37 83 -37 222v343zM333 860h46l142 -161l-34 -22
l-131 101l-131 -101l-33 22z" />
    <glyph glyph-name="Udieresis" unicode="&#xdc;" horiz-adv-x="700" 
d="M82 634h103v-340c0 -128 4 -151 28 -182c23 -30 77 -48 141 -48c74 0 135 27 161 72c18 31 24 72 24 176v322h82l-3 -321c-1 -151 -18 -210 -71 -257c-50 -44 -127 -68 -220 -68c-101 0 -170 27 -208 81c-31 45 -37 83 -37 222v343zM250 803c27 0 50 -23 50 -51
s-23 -50 -51 -50c-27 0 -50 23 -50 50c0 28 23 51 51 51zM462 803c27 0 50 -23 50 -51s-23 -50 -51 -50c-27 0 -50 23 -50 50c0 28 23 51 51 51z" />
    <glyph glyph-name="Ugrave" unicode="&#xd9;" horiz-adv-x="700" 
d="M82 634h103v-340c0 -128 4 -151 28 -182c23 -30 77 -48 141 -48c74 0 135 27 161 72c18 31 24 72 24 176v322h82l-3 -321c-1 -151 -18 -210 -71 -257c-50 -44 -127 -68 -220 -68c-101 0 -170 27 -208 81c-31 45 -37 83 -37 222v343zM266 857l153 -160l-39 -13l-195 117
l-3 19l76 37h8z" />
    <glyph glyph-name="Yacute" unicode="&#xdd;" horiz-adv-x="500" 
d="M-30 634h121l171 -290l175 290h107l-249 -355v-279h-103v275zM345 857h9l75 -37l-3 -19l-195 -117l-39 13z" />
    <glyph glyph-name="Ydieresis" unicode="&#x178;" horiz-adv-x="500" 
d="M-29 634h121l171 -290l175 290h107l-249 -355v-279h-103v275zM156 803c27 0 50 -23 50 -51s-23 -50 -51 -50c-27 0 -50 23 -50 50c0 28 23 51 51 51zM368 803c27 0 50 -23 50 -51s-23 -50 -51 -50c-27 0 -50 23 -50 50c0 28 23 51 51 51z" />
    <glyph glyph-name="Zcaron" unicode="&#x17d;" horiz-adv-x="563" 
d="M43 634h509v-42l-402 -524h403l-11 -68h-532v43l406 524h-373v67zM308 688h-46l-141 161l33 22l131 -100l131 100l34 -22z" />
    <glyph glyph-name="aacute" unicode="&#xe1;" horiz-adv-x="497" 
d="M78 320l-3 50c1 7 3 12 6 14c39 29 113 49 179 49c56 0 96 -13 121 -39c20 -22 26 -47 26 -102v-10l-3 -170v-9c0 -37 3 -43 24 -43c17 0 36 5 62 17l4 -3v-39c0 -7 -2 -9 -10 -14c-27 -16 -79 -31 -107 -31c-27 0 -45 12 -54 38c-68 -25 -122 -38 -164 -38
c-68 0 -109 45 -109 120c0 57 21 85 75 102c49 15 106 26 190 36c-1 68 -1 71 -6 84c-9 23 -35 35 -78 35c-58 0 -93 -15 -125 -54zM314 79v119c-51 -8 -89 -15 -126 -25c-39 -11 -47 -20 -47 -53c0 -42 21 -61 66 -61c28 0 53 5 107 20zM308 642l6 2l75 -24v-18l-162 -136
l-38 7z" />
    <glyph glyph-name="acircumflex" unicode="&#xe2;" horiz-adv-x="497" 
d="M78 320l-3 50c1 7 3 12 6 14c39 29 113 49 179 49c56 0 96 -13 121 -39c20 -22 26 -47 26 -102v-10l-3 -170v-9c0 -37 3 -43 24 -43c17 0 36 5 62 17l4 -3v-39c0 -7 -2 -9 -10 -14c-27 -16 -79 -31 -107 -31c-27 0 -45 12 -54 38c-68 -25 -122 -38 -164 -38
c-68 0 -109 45 -109 120c0 57 21 85 75 102c49 15 106 26 190 36c-1 68 -1 71 -6 84c-9 23 -35 35 -78 35c-58 0 -93 -15 -125 -54zM314 79v119c-51 -8 -89 -15 -126 -25c-39 -11 -47 -20 -47 -53c0 -42 21 -61 66 -61c28 0 53 5 107 20zM226 642h48l114 -161l-31 -17
l-107 95l-108 -95l-30 17z" />
    <glyph glyph-name="adieresis" unicode="&#xe4;" horiz-adv-x="497" 
d="M78 320l-3 50c1 7 3 12 6 14c39 29 113 49 179 49c56 0 96 -13 121 -39c20 -22 26 -47 26 -102v-10l-3 -170v-9c0 -37 3 -43 24 -43c17 0 36 5 62 17l4 -3v-39c0 -7 -2 -9 -10 -14c-27 -16 -79 -31 -107 -31c-27 0 -45 12 -54 38c-68 -25 -122 -38 -164 -38
c-68 0 -109 45 -109 120c0 57 21 85 75 102c49 15 106 26 190 36c-1 68 -1 71 -6 84c-9 23 -35 35 -78 35c-58 0 -93 -15 -125 -54zM314 79v119c-51 -8 -89 -15 -126 -25c-39 -11 -47 -20 -47 -53c0 -42 21 -61 66 -61c28 0 53 5 107 20zM152 597c27 0 48 -21 48 -48
c0 -26 -21 -47 -48 -47c-25 0 -47 22 -47 47c0 26 21 48 47 48zM346 597c26 0 47 -21 47 -48c0 -26 -21 -47 -48 -47c-25 0 -47 22 -47 47c0 27 21 48 48 48z" />
    <glyph glyph-name="agrave" unicode="&#xe0;" horiz-adv-x="497" 
d="M78 320l-3 50c1 7 3 12 6 14c39 29 113 49 179 49c56 0 96 -13 121 -39c20 -22 26 -47 26 -102v-10l-3 -170v-9c0 -37 3 -43 24 -43c17 0 36 5 62 17l4 -3v-39c0 -7 -2 -9 -10 -14c-27 -16 -79 -31 -107 -31c-27 0 -45 12 -54 38c-68 -25 -122 -38 -164 -38
c-68 0 -109 45 -109 120c0 57 21 85 75 102c49 15 106 26 190 36c-1 68 -1 71 -6 84c-9 23 -35 35 -78 35c-58 0 -93 -15 -125 -54zM314 79v119c-51 -8 -89 -15 -126 -25c-39 -11 -47 -20 -47 -53c0 -42 21 -61 66 -61c28 0 53 5 107 20zM203 642l119 -169l-38 -7l-162 136
v18l75 24z" />
    <glyph glyph-name="aring" unicode="&#xe5;" horiz-adv-x="497" 
d="M78 320l-3 50c1 7 3 12 6 14c39 29 113 49 179 49c56 0 96 -13 121 -39c20 -22 26 -47 26 -102v-10l-3 -170v-9c0 -37 3 -43 24 -43c17 0 36 5 62 17l4 -3v-39c0 -7 -2 -9 -10 -14c-27 -16 -79 -31 -107 -31c-27 0 -45 12 -54 38c-68 -25 -122 -38 -164 -38
c-68 0 -109 45 -109 120c0 57 21 85 75 102c49 15 106 26 190 36c-1 68 -1 71 -6 84c-9 23 -35 35 -78 35c-58 0 -93 -15 -125 -54zM314 79v119c-51 -8 -89 -15 -126 -25c-39 -11 -47 -20 -47 -53c0 -42 21 -61 66 -61c28 0 53 5 107 20zM249 671c60 0 108 -44 108 -100
s-47 -98 -109 -98c-59 0 -106 44 -106 98c0 56 48 100 107 100zM250 627c-29 0 -51 -24 -51 -56c0 -33 22 -57 51 -57c30 0 50 22 50 56c0 33 -21 57 -50 57z" />
    <glyph glyph-name="atilde" unicode="&#xe3;" horiz-adv-x="497" 
d="M78 320l-3 50c1 7 3 12 6 14c39 29 113 49 179 49c56 0 96 -13 121 -39c20 -22 26 -47 26 -102v-10l-3 -170v-9c0 -37 3 -43 24 -43c17 0 36 5 62 17l4 -3v-39c0 -7 -2 -9 -10 -14c-27 -16 -79 -31 -107 -31c-27 0 -45 12 -54 38c-68 -25 -122 -38 -164 -38
c-68 0 -109 45 -109 120c0 57 21 85 75 102c49 15 106 26 190 36c-1 68 -1 71 -6 84c-9 23 -35 35 -78 35c-58 0 -93 -15 -125 -54zM314 79v119c-51 -8 -89 -15 -126 -25c-39 -11 -47 -20 -47 -53c0 -42 21 -61 66 -61c28 0 53 5 107 20zM380 626h5l25 -21
c-25 -67 -63 -105 -107 -105c-21 0 -37 7 -71 30c-28 19 -38 24 -52 24c-22 0 -39 -17 -59 -57h-5l-26 20c32 74 64 107 106 107c20 0 25 -2 71 -32c24 -15 40 -22 51 -22c24 0 45 19 62 56z" />
    <glyph glyph-name="ccedilla" unicode="&#xe7;" horiz-adv-x="437" 
d="M383 332h-18c-35 24 -60 32 -98 32c-81 0 -127 -51 -127 -143c0 -97 53 -160 134 -160c44 0 89 14 131 40l8 -4v-36c0 -8 -2 -11 -10 -17c-26 -20 -72 -40 -119 -50l-31 -50v-10c39 -22 52 -38 52 -62c0 -48 -59 -100 -114 -100c-30 0 -64 18 -64 34c0 3 1 5 4 9l23 23
h13c14 -16 26 -23 42 -23c20 0 35 13 35 30c0 15 -15 29 -60 52v22l49 69c-113 0 -191 81 -191 200c0 140 112 245 261 245c44 0 87 -13 111 -32c5 -5 6 -7 6 -21c0 -11 -1 -14 -6 -19z" />
    <glyph glyph-name="eacute" unicode="&#xe9;" horiz-adv-x="452" 
d="M419 226l-276 -30c5 -88 49 -136 125 -136c45 0 83 11 130 38h8l13 -38c1 -1 1 -3 1 -4c0 -3 -4 -7 -16 -15c-50 -33 -114 -53 -169 -53c-120 0 -193 81 -193 213c0 139 83 232 206 232c111 0 170 -71 171 -207zM142 249l173 22c-3 70 -31 107 -79 107
c-56 0 -91 -49 -94 -129zM294 642l6 2l75 -24v-18l-162 -136l-38 7z" />
    <glyph glyph-name="ecircumflex" unicode="&#xea;" horiz-adv-x="452" 
d="M419 226l-276 -30c5 -88 49 -136 125 -136c45 0 83 11 130 38h8l13 -38c1 -1 1 -3 1 -4c0 -3 -4 -7 -16 -15c-50 -33 -114 -53 -169 -53c-120 0 -193 81 -193 213c0 139 83 232 206 232c111 0 170 -71 171 -207zM142 249l173 22c-3 70 -31 107 -79 107
c-56 0 -91 -49 -94 -129zM216 642h48l114 -161l-31 -17l-107 95l-108 -95l-30 17z" />
    <glyph glyph-name="edieresis" unicode="&#xeb;" horiz-adv-x="452" 
d="M419 226l-276 -30c5 -88 49 -136 125 -136c45 0 83 11 130 38h8l13 -38c1 -1 1 -3 1 -4c0 -3 -4 -7 -16 -15c-50 -33 -114 -53 -169 -53c-120 0 -193 81 -193 213c0 139 83 232 206 232c111 0 170 -71 171 -207zM142 249l173 22c-3 70 -31 107 -79 107
c-56 0 -91 -49 -94 -129zM150 597c27 0 48 -21 48 -48c0 -26 -21 -47 -48 -47c-25 0 -47 22 -47 47c0 26 21 48 47 48zM344 597c26 0 47 -21 47 -48c0 -26 -21 -47 -48 -47c-25 0 -47 22 -47 47c0 27 21 48 48 48z" />
    <glyph glyph-name="egrave" unicode="&#xe8;" horiz-adv-x="452" 
d="M419 226l-276 -30c5 -88 49 -136 125 -136c45 0 83 11 130 38h8l13 -38c1 -1 1 -3 1 -4c0 -3 -4 -7 -16 -15c-50 -33 -114 -53 -169 -53c-120 0 -193 81 -193 213c0 139 83 232 206 232c111 0 170 -71 171 -207zM142 249l173 22c-3 70 -31 107 -79 107
c-56 0 -91 -49 -94 -129zM180 642l119 -169l-38 -7l-162 136v18l75 24z" />
    <glyph glyph-name="iacute" unicode="&#xed;" horiz-adv-x="241" 
d="M73 422h95v-422h-95v422zM193 642l6 2l75 -24v-18l-162 -136l-38 7z" />
    <glyph glyph-name="icircumflex" unicode="&#xee;" horiz-adv-x="241" 
d="M73 422h95v-422h-95v422zM97 642h48l97 -161l-31 -17l-90 95l-91 -95l-30 17z" />
    <glyph glyph-name="idieresis" unicode="&#xef;" horiz-adv-x="241" 
d="M72 422h95v-422h-95v422zM48 597c27 0 48 -21 48 -48c0 -26 -21 -47 -48 -47c-25 0 -47 22 -47 47c0 26 21 48 47 48zM190 597c26 0 47 -21 47 -48c0 -26 -21 -47 -48 -47c-26 0 -47 22 -47 47c0 27 21 48 48 48z" />
    <glyph glyph-name="igrave" unicode="&#xec;" horiz-adv-x="241" 
d="M72 422h95v-422h-95v422zM47 642l119 -169l-38 -7l-162 136v18l75 24z" />
    <glyph glyph-name="ntilde" unicode="&#xf1;" horiz-adv-x="537" 
d="M73 422h94v-59c76 53 119 70 175 70c49 0 87 -19 107 -54c15 -26 17 -42 17 -123v-256h-95v239c0 56 -1 69 -9 85c-10 21 -29 32 -56 32c-40 0 -87 -20 -138 -58v-298h-95v422zM410 621h5l25 -21c-25 -67 -63 -105 -107 -105c-21 0 -37 7 -71 30c-28 19 -38 24 -52 24
c-22 0 -39 -17 -59 -57h-5l-26 20c32 74 64 107 106 107c20 0 25 -2 71 -32c24 -15 40 -22 51 -22c24 0 45 19 62 56z" />
    <glyph glyph-name="oacute" unicode="&#xf3;" horiz-adv-x="555" 
d="M291 433c131 0 222 -87 222 -214c0 -135 -103 -232 -245 -232c-133 0 -226 90 -226 218c0 135 101 228 249 228zM275 373c-79 0 -131 -56 -131 -142c0 -103 62 -183 140 -183c75 0 127 62 127 151c0 100 -58 174 -136 174zM346 642l6 2l75 -24v-18l-162 -136l-38 7z" />
    <glyph glyph-name="ocircumflex" unicode="&#xf4;" horiz-adv-x="555" 
d="M291 433c131 0 222 -87 222 -214c0 -135 -103 -232 -245 -232c-133 0 -226 90 -226 218c0 135 101 228 249 228zM275 373c-79 0 -131 -56 -131 -142c0 -103 62 -183 140 -183c75 0 127 62 127 151c0 100 -58 174 -136 174zM253 642h48l114 -161l-31 -17l-107 95l-108 -95
l-30 17z" />
    <glyph glyph-name="odieresis" unicode="&#xf6;" horiz-adv-x="555" 
d="M291 433c131 0 222 -87 222 -214c0 -135 -103 -232 -245 -232c-133 0 -226 90 -226 218c0 135 101 228 249 228zM275 373c-79 0 -131 -56 -131 -142c0 -103 62 -183 140 -183c75 0 127 62 127 151c0 100 -58 174 -136 174zM179 597c27 0 48 -21 48 -48
c0 -26 -21 -47 -48 -47c-25 0 -47 22 -47 47c0 26 21 48 47 48zM373 597c26 0 47 -21 47 -48c0 -26 -21 -47 -48 -47c-25 0 -47 22 -47 47c0 27 21 48 48 48z" />
    <glyph glyph-name="ograve" unicode="&#xf2;" horiz-adv-x="555" 
d="M291 433c131 0 222 -87 222 -214c0 -135 -103 -232 -245 -232c-133 0 -226 90 -226 218c0 135 101 228 249 228zM275 373c-79 0 -131 -56 -131 -142c0 -103 62 -183 140 -183c75 0 127 62 127 151c0 100 -58 174 -136 174zM209 642l119 -169l-38 -7l-162 136v18l75 24z
" />
    <glyph glyph-name="otilde" unicode="&#xf5;" horiz-adv-x="555" 
d="M291 433c131 0 222 -87 222 -214c0 -135 -103 -232 -245 -232c-133 0 -226 90 -226 218c0 135 101 228 249 228zM275 373c-79 0 -131 -56 -131 -142c0 -103 62 -183 140 -183c75 0 127 62 127 151c0 100 -58 174 -136 174zM413 626h5l25 -21c-25 -67 -63 -105 -107 -105
c-21 0 -37 7 -71 30c-28 19 -38 24 -52 24c-22 0 -39 -17 -59 -57h-5l-26 20c32 74 64 107 106 107c20 0 25 -2 71 -32c24 -15 40 -22 51 -22c24 0 45 19 62 56z" />
    <glyph glyph-name="scaron" unicode="&#x161;" horiz-adv-x="404" 
d="M344 350l-23 -11c-38 24 -69 34 -107 34c-47 0 -76 -20 -76 -52c0 -30 15 -40 97 -69c58 -20 78 -30 101 -48c23 -19 36 -47 36 -79c0 -82 -75 -136 -189 -136c-38 0 -99 9 -127 19c-6 2 -6 3 -8 11l-10 63l24 11c40 -28 83 -42 133 -42c52 0 84 22 84 57
c0 31 -17 44 -89 68c-62 21 -75 26 -97 41c-29 20 -45 51 -45 86c0 78 71 129 180 129c34 0 85 -7 101 -13c5 -2 6 -4 7 -11zM228 473h-48l-114 161l30 18l108 -95l107 95l31 -18z" />
    <glyph glyph-name="uacute" unicode="&#xfa;" horiz-adv-x="537" 
d="M464 422v-422h-93v56c-61 -46 -112 -67 -167 -67s-98 24 -118 67c-13 28 -16 53 -16 145v221h95v-220c0 -72 2 -87 10 -105c11 -20 33 -32 60 -32c37 0 86 20 134 55v302h95zM336 642l6 2l75 -24v-18l-162 -136l-38 7z" />
    <glyph glyph-name="ucircumflex" unicode="&#xfb;" horiz-adv-x="537" 
d="M464 422v-422h-93v56c-61 -46 -112 -67 -167 -67s-98 24 -118 67c-13 28 -16 53 -16 145v221h95v-220c0 -72 2 -87 10 -105c11 -20 33 -32 60 -32c37 0 86 20 134 55v302h95zM244 642h48l114 -161l-31 -17l-107 95l-108 -95l-30 17z" />
    <glyph glyph-name="udieresis" unicode="&#xfc;" horiz-adv-x="537" 
d="M464 422v-422h-93v56c-61 -46 -112 -67 -167 -67s-98 24 -118 67c-13 28 -16 53 -16 145v221h95v-220c0 -72 2 -87 10 -105c11 -20 33 -32 60 -32c37 0 86 20 134 55v302h95zM170 597c27 0 48 -21 48 -48c0 -26 -21 -47 -48 -47c-25 0 -47 22 -47 47c0 26 21 48 47 48z
M364 597c26 0 47 -21 47 -48c0 -26 -21 -47 -48 -47c-25 0 -47 22 -47 47c0 27 21 48 48 48z" />
    <glyph glyph-name="ugrave" unicode="&#xf9;" horiz-adv-x="537" 
d="M464 422v-422h-93v56c-61 -46 -112 -67 -167 -67s-98 24 -118 67c-13 28 -16 53 -16 145v221h95v-220c0 -72 2 -87 10 -105c11 -20 33 -32 60 -32c37 0 86 20 134 55v302h95zM199 642l119 -169l-38 -7l-162 136v18l75 24z" />
    <glyph glyph-name="yacute" unicode="&#xfd;" horiz-adv-x="422" 
d="M6 422h109l102 -322l139 322h89l-344 -686l-84 24l144 236zM286 642l6 2l75 -24v-18l-162 -136l-38 7z" />
    <glyph glyph-name="ydieresis" unicode="&#xff;" horiz-adv-x="422" 
d="M6 422h109l102 -322l139 322h89l-344 -686l-84 24l144 236zM130 597c27 0 48 -21 48 -48c0 -26 -21 -47 -48 -47c-25 0 -47 22 -47 47c0 26 21 48 47 48zM324 597c26 0 47 -21 47 -48c0 -26 -21 -47 -48 -47c-25 0 -47 22 -47 47c0 27 21 48 48 48z" />
    <glyph glyph-name="zcaron" unicode="&#x17e;" horiz-adv-x="404" 
d="M36 422h363v-40l-263 -319h263l-14 -63h-376v43l264 319h-237v60zM241 473h-48l-114 161l30 18l108 -95l107 95l31 -18z" />
    <glyph glyph-name="Hungarumlautsmall" unicode="&#xf6f8;" horiz-adv-x="500" 
d="M244 689l6 1l70 -18v-16l-142 -132l-35 5zM384 689l6 1l70 -18v-16l-142 -132l-35 5z" />
    <glyph glyph-name="zerooldstyle" unicode="&#xf730;" horiz-adv-x="570" 
d="M289 462c137 0 233 -98 233 -237c0 -141 -97 -237 -238 -237c-139 0 -236 97 -236 236c0 143 97 238 241 238zM287 395c-95 0 -148 -61 -148 -170c0 -107 54 -170 146 -170c93 0 146 62 146 170c0 106 -54 170 -144 170z" />
    <glyph glyph-name="oneoldstyle" unicode="&#xf731;" horiz-adv-x="237" 
d="M70 443l97 15v-458h-97v443z" />
    <glyph glyph-name="twooldstyle" unicode="&#xf732;" horiz-adv-x="441" 
d="M418 81l-23 -81h-372v37c63 53 149 130 176 158c46 48 64 81 64 119c0 49 -28 77 -78 77c-48 0 -88 -25 -112 -71h-28l-5 47v7c0 6 3 11 15 23c38 40 99 65 161 65c90 0 149 -51 149 -128c0 -75 -40 -124 -212 -254z" />
    <glyph glyph-name="threeoldstyle" unicode="&#xf733;" horiz-adv-x="411" 
d="M30 334v58c0 9 2 13 13 20c44 32 96 48 155 48c82 0 138 -48 138 -117c0 -56 -33 -98 -109 -141c90 -9 142 -68 142 -160c0 -68 -32 -126 -94 -171c-47 -33 -100 -51 -155 -51c-41 0 -90 10 -112 23c-6 4 -7 7 -7 17c0 9 1 13 6 19l26 34h19c30 -20 61 -30 93 -30
c72 0 124 58 124 139c0 73 -44 120 -114 120c-23 0 -41 -4 -64 -14l-13 6l-8 44c113 41 168 91 168 153c0 42 -25 67 -70 67c-46 0 -85 -22 -112 -64h-26z" />
    <glyph glyph-name="fouroldstyle" unicode="&#xf734;" horiz-adv-x="515" 
d="M334 449h61v-369h107l-14 -71h-93v-197l-87 -13v210h-295v56zM308 80v253l-208 -253h208z" />
    <glyph glyph-name="fiveoldstyle" unicode="&#xf735;" horiz-adv-x="411" 
d="M142 449h245l-23 -88h-196l-35 -94c70 -29 96 -44 131 -74c50 -44 75 -95 75 -154c0 -119 -113 -228 -238 -228c-39 0 -78 13 -103 35c-5 4 -7 9 -7 19c0 8 1 12 6 17l30 31h22c25 -20 55 -31 88 -31c67 0 114 51 114 123c0 84 -62 144 -199 191l-6 13z" />
    <glyph glyph-name="sixoldstyle" unicode="&#xf736;" horiz-adv-x="533" 
d="M497 582l-8 -11c-160 -10 -287 -111 -320 -253c57 39 92 51 147 51c106 0 175 -70 175 -177c0 -121 -89 -204 -219 -204c-133 0 -212 90 -212 239c0 157 89 290 240 359c49 23 124 41 169 41c8 0 10 -1 12 -8zM161 249c-2 -17 -2 -22 -2 -34c0 -101 49 -169 122 -169
c68 0 111 49 111 125c0 82 -41 131 -109 131c-45 0 -86 -18 -122 -53z" />
    <glyph glyph-name="sevenoldstyle" unicode="&#xf737;" horiz-adv-x="467" 
d="M33 449h419v-48l-351 -609l-78 39l331 533h-338z" />
    <glyph glyph-name="eightoldstyle" unicode="&#xf738;" horiz-adv-x="515" 
d="M329 329c102 -55 140 -101 140 -174c0 -99 -88 -167 -218 -167c-128 0 -204 57 -204 153c0 73 42 126 135 169c-41 26 -58 39 -74 57c-26 28 -40 64 -40 101c0 93 81 155 202 155c114 0 181 -52 181 -141c0 -67 -38 -114 -122 -153zM275 355c59 31 81 63 81 117
c0 65 -34 100 -98 100c-60 0 -98 -34 -98 -88c0 -50 27 -80 115 -129zM231 283c-60 -29 -88 -72 -88 -133c0 -70 43 -111 115 -111c70 0 116 40 116 101c0 56 -37 93 -143 143z" />
    <glyph glyph-name="nineoldstyle" unicode="&#xf739;" horiz-adv-x="533" 
d="M39 -133l8 10c161 7 289 109 319 255c-58 -40 -93 -52 -148 -52c-103 0 -173 72 -173 178c0 120 91 204 219 204c133 0 212 -90 212 -242c0 -172 -107 -318 -275 -375c-41 -14 -99 -24 -135 -24c-7 0 -8 1 -11 8zM375 200c2 15 2 23 2 31c0 106 -47 173 -122 173
c-68 0 -111 -49 -111 -126c0 -82 41 -131 109 -131c46 0 90 19 122 53z" />
    <glyph glyph-name="Asmall" unicode="&#xf761;" horiz-adv-x="469" 
d="M213 466h74l185 -466h-106l-50 142h-177l-57 -142h-90zM297 196l-62 184l-74 -184h136z" />
    <glyph glyph-name="Bsmall" unicode="&#xf762;" horiz-adv-x="493" 
d="M79 466l147 3c68 0 105 -7 134 -25c32 -20 50 -49 50 -84c0 -42 -27 -78 -71 -94c73 -17 112 -60 112 -124c0 -51 -29 -95 -78 -120c-34 -17 -89 -25 -169 -25c-21 0 -58 1 -125 3v466zM173 413v-136c11 -1 17 -1 29 -1c46 0 66 4 82 16c17 13 26 31 26 56
c0 49 -27 67 -99 67c-14 0 -24 0 -38 -2zM173 54h26c54 0 81 3 105 13c30 11 47 37 47 71c0 59 -42 86 -134 86c-10 0 -18 0 -44 -2v-168z" />
    <glyph glyph-name="Csmall" unicode="&#xf763;" horiz-adv-x="499" 
d="M476 440l-5 -37c-1 -7 -2 -8 -8 -11l-6 -3c-5 -2 -5 -2 -7 -2s-4 1 -14 5c-33 17 -79 27 -121 27c-103 0 -167 -70 -167 -182c0 -113 70 -190 171 -190c45 0 88 11 125 31c2 1 3 1 5 1c0 0 5 -1 6 -2l6 -3c5 -3 6 -5 6 -9c0 -1 0 -1 -1 -5l-7 -36c-1 -10 -3 -12 -13 -15
c-41 -12 -90 -19 -136 -19c-64 0 -124 14 -164 39c-64 39 -105 116 -105 196c0 83 43 160 115 205c51 31 111 46 183 46c47 0 107 -9 128 -19c7 -3 10 -9 9 -17z" />
    <glyph glyph-name="Dsmall" unicode="&#xf764;" horiz-adv-x="571" 
d="M79 0v466c97 2 162 3 189 3c98 0 145 -11 188 -46c48 -40 75 -103 75 -178c0 -86 -35 -158 -98 -202c-48 -33 -104 -46 -202 -46c-27 0 -99 1 -152 3zM176 412v-357c13 -1 46 -1 70 -1c66 0 105 12 132 40c29 30 46 82 46 145c0 67 -20 120 -56 148
c-26 19 -58 27 -115 27c-18 0 -48 -1 -77 -2z" />
    <glyph glyph-name="Esmall" unicode="&#xf765;" horiz-adv-x="433" 
d="M79 466h328v-58h-231v-135h201v-56h-201v-157h236v-60h-333v466z" />
    <glyph glyph-name="Fsmall" unicode="&#xf766;" horiz-adv-x="385" 
d="M79 466h320v-58h-223v-140h181v-56h-181v-212h-97v466z" />
    <glyph glyph-name="Gsmall" unicode="&#xf767;" horiz-adv-x="556" 
d="M407 236h96v-222c-67 -15 -137 -24 -190 -24c-69 0 -127 14 -169 40c-63 39 -102 112 -102 192c0 151 120 254 296 254c42 0 111 -9 132 -18c8 -3 11 -7 11 -15l3 -40v-1c0 -4 -2 -7 -6 -9l-10 -6c-3 -1 -4 -2 -6 -2s-5 1 -16 7c-31 16 -79 27 -119 27
c-109 0 -178 -72 -178 -186c0 -115 70 -186 184 -186c26 0 47 3 74 10v179z" />
    <glyph glyph-name="Hsmall" unicode="&#xf768;" horiz-adv-x="585" 
d="M176 274h234v192h97v-466h-97v214h-234v-214h-97v466h97v-192z" />
    <glyph glyph-name="Ismall" unicode="&#xf769;" horiz-adv-x="254" 
d="M79 466h97v-466h-97v466z" />
    <glyph glyph-name="Jsmall" unicode="&#xf76a;" horiz-adv-x="263" 
d="M87 466h97v-391c0 -82 -9 -111 -44 -147c-39 -41 -91 -64 -143 -64c-28 0 -57 8 -69 19c-4 3 -5 8 -5 17c0 12 1 15 7 20l24 21c5 4 7 5 12 5h6c6 0 6 0 17 -3c9 -4 25 -6 38 -6c29 0 46 10 53 32c6 15 7 35 7 90v407z" />
    <glyph glyph-name="Ksmall" unicode="&#xf76b;" horiz-adv-x="480" 
d="M79 466h97v-466h-97v466zM383 466h115l-217 -205l224 -261h-127l-198 249z" />
    <glyph glyph-name="Lsmall" unicode="&#xf76c;" horiz-adv-x="375" 
d="M79 466h97v-406h216v-60h-313v466z" />
    <glyph glyph-name="Msmall" unicode="&#xf76d;" horiz-adv-x="689" 
d="M92 466h92l161 -348l174 348h88l16 -466h-93l-9 348l-170 -340l-42 -5l-162 350l-6 -353h-81z" />
    <glyph glyph-name="Nsmall" unicode="&#xf76e;" horiz-adv-x="571" 
d="M68 466h84l276 -339l-9 339h79l-1 -461l-65 -20l-295 363l9 -348h-79z" />
    <glyph glyph-name="Osmall" unicode="&#xf76f;" horiz-adv-x="602" 
d="M313 476c145 0 248 -99 248 -237c0 -144 -113 -249 -268 -249c-144 0 -252 103 -252 239c0 142 116 247 272 247zM300 416c-90 0 -152 -71 -152 -176c0 -107 70 -190 160 -190c84 0 147 75 147 175c0 109 -66 191 -155 191z" />
    <glyph glyph-name="Psmall" unicode="&#xf770;" horiz-adv-x="453" 
d="M79 0v466c25 1 140 3 145 3c69 0 113 -7 145 -24c44 -23 70 -67 70 -118c0 -52 -28 -98 -79 -125c-36 -20 -83 -29 -151 -29c-13 0 -22 0 -34 1v-174h-96zM173 411v-179c14 -2 22 -2 35 -2c86 0 126 30 126 94c0 62 -35 88 -122 88z" />
    <glyph glyph-name="Qsmall" unicode="&#xf771;" horiz-adv-x="602" 
d="M554 -67l4 -43c-16 -4 -25 -5 -45 -5c-76 0 -165 41 -235 109c-135 3 -237 104 -237 236c0 139 117 246 269 246c148 0 251 -97 251 -238c0 -111 -63 -198 -166 -232c56 -51 104 -73 159 -73zM301 416c-91 0 -153 -71 -153 -175c0 -107 70 -190 160 -190
c85 0 147 74 147 175c0 108 -66 190 -154 190z" />
    <glyph glyph-name="Rsmall" unicode="&#xf772;" horiz-adv-x="508" 
d="M79 0v466c17 0 29 0 35 1c7 0 26 0 49 1c28 1 51 1 63 1c79 0 119 -6 148 -22c42 -22 66 -61 66 -108c0 -59 -39 -102 -113 -126c74 -126 122 -172 180 -175l3 -5l-8 -27c-3 -9 -12 -12 -37 -12c-92 0 -135 36 -238 200c-15 -2 -24 -2 -37 -2h-17v-192h-94zM173 411v-164
c14 -1 20 -1 32 -1c90 0 130 27 130 88c0 57 -32 78 -121 78c-15 0 -25 0 -41 -1z" />
    <glyph glyph-name="Ssmall" unicode="&#xf773;" horiz-adv-x="399" 
d="M339 447l6 -41c1 -2 1 -3 1 -4c0 -2 -3 -7 -6 -8l-14 -6l-5 -1c-3 0 -7 2 -13 6c-22 14 -65 26 -97 26c-50 0 -81 -24 -81 -63c0 -35 12 -45 103 -83c60 -26 81 -37 102 -57c23 -21 36 -52 36 -83c0 -83 -82 -143 -197 -143c-37 0 -106 10 -130 18c-11 4 -14 7 -16 15
l-7 45v4c0 4 2 8 6 9l12 6c3 1 5 2 7 2s3 -1 11 -5c34 -20 87 -34 128 -34c54 0 91 28 91 69c0 36 -18 52 -96 83c-62 25 -84 37 -107 57s-37 50 -37 82c0 81 76 135 191 135c34 0 84 -7 101 -15c7 -2 9 -6 11 -14z" />
    <glyph glyph-name="Tsmall" unicode="&#xf774;" horiz-adv-x="412" 
d="M-23 466h457v-60h-178v-406h-97v406h-182v60z" />
    <glyph glyph-name="Usmall" unicode="&#xf775;" horiz-adv-x="546" 
d="M71 466h97v-250c0 -91 2 -105 19 -125c17 -22 50 -34 91 -34c49 0 87 18 105 49c11 21 15 51 15 123v237h80l-3 -236c-1 -111 -14 -154 -55 -190c-38 -32 -95 -50 -164 -50c-73 0 -124 20 -155 62c-25 34 -30 61 -30 162v252z" />
    <glyph glyph-name="Vsmall" unicode="&#xf776;" horiz-adv-x="440" 
d="M-10 466h107l130 -362l149 362h91l-223 -466h-67z" />
    <glyph glyph-name="Wsmall" unicode="&#xf777;" horiz-adv-x="719" 
d="M-10 466h104l118 -357l128 357h60l119 -358l129 358h91l-202 -466h-68l-110 330l-124 -330h-69z" />
    <glyph glyph-name="Xsmall" unicode="&#xf778;" horiz-adv-x="423" 
d="M13 466h112l103 -166l113 166h100l-175 -215l179 -251h-117l-115 188l-128 -188h-104l195 239z" />
    <glyph glyph-name="Ysmall" unicode="&#xf779;" horiz-adv-x="413" 
d="M-18 466h113l123 -205l127 205h101l-195 -262v-204h-97v202z" />
    <glyph glyph-name="Zsmall" unicode="&#xf77a;" horiz-adv-x="417" 
d="M31 466h382v-37l-281 -369h283l-11 -60h-400v39l282 369h-255v58z" />
    <glyph glyph-name="Lslashsmall" unicode="&#xf6f9;" horiz-adv-x="375" 
d="M78 172l-60 -39v65l60 39v229h97v-180l107 72v-65l-107 -72v-161h216v-60h-313v172z" />
    <glyph glyph-name="Scaronsmall" unicode="&#xf6fd;" horiz-adv-x="399" 
d="M339 447l6 -41c1 -2 1 -3 1 -4c0 -2 -3 -7 -6 -8l-14 -6l-5 -1c-3 0 -7 2 -13 6c-22 14 -65 26 -97 26c-50 0 -81 -24 -81 -63c0 -35 12 -45 103 -83c60 -26 81 -37 102 -57c23 -21 36 -52 36 -83c0 -83 -82 -143 -197 -143c-37 0 -106 10 -130 18c-11 4 -14 7 -16 15
l-7 45v4c0 4 2 8 6 9l12 6c3 1 5 2 7 2s3 -1 11 -5c34 -20 87 -34 128 -34c54 0 91 28 91 69c0 36 -18 52 -96 83c-62 25 -84 37 -107 57s-37 50 -37 82c0 81 76 135 191 135c34 0 84 -7 101 -15c7 -2 9 -6 11 -14zM229 527h-47l-121 161l31 19l113 -97l114 97l31 -19z" />
    <glyph glyph-name="Zcaronsmall" unicode="&#xf6ff;" horiz-adv-x="417" 
d="M31 466h382v-37l-281 -369h283l-11 -60h-400v39l282 369h-255v58zM239 527h-47l-121 161l31 19l113 -97l114 97l31 -19z" />
    <glyph glyph-name="Brevesmall" unicode="&#xf6f4;" horiz-adv-x="500" 
d="M116 680h43c9 -50 40 -76 91 -76s83 26 92 76h43v-11c0 -78 -56 -134 -135 -134c-78 0 -134 56 -134 135v10z" />
    <glyph glyph-name="Caronsmall" unicode="&#xf6f5;" horiz-adv-x="500" 
d="M274 527h-47l-121 161l31 19l113 -97l114 97l31 -19z" />
    <glyph glyph-name="Dotaccentsmall" unicode="&#xf6f7;" horiz-adv-x="500" 
d="M250 651c27 0 50 -23 50 -51c0 -27 -23 -50 -51 -50c-27 0 -50 23 -50 50c0 28 23 51 51 51z" />
    <glyph glyph-name="Ogoneksmall" unicode="&#xf6fb;" horiz-adv-x="500" 
d="M394 0h51c-51 -53 -69 -83 -69 -113c0 -25 18 -39 51 -39c12 0 26 2 40 5h8l-2 -11c-2 -11 -4 -16 -12 -21c-13 -9 -46 -17 -69 -17c-50 0 -85 31 -85 74c0 39 26 76 87 122z" />
    <glyph glyph-name="Agravesmall" unicode="&#xf7e0;" horiz-adv-x="469" 
d="M213 466h74l185 -466h-106l-50 142h-177l-57 -142h-90zM297 196l-62 184l-74 -184h136zM161 696l127 -167l-38 -9l-171 132v18l75 27z" />
    <glyph glyph-name="Aacutesmall" unicode="&#xf7e1;" horiz-adv-x="469" 
d="M213 466h74l185 -466h-106l-50 142h-177l-57 -142h-90zM297 196l-62 184l-74 -184h136zM323 696l7 1l75 -27v-18l-171 -132l-38 9z" />
    <glyph glyph-name="Acircumflexsmall" unicode="&#xf7e2;" horiz-adv-x="469" 
d="M213 466h74l185 -466h-106l-50 142h-177l-57 -142h-90zM297 196l-62 184l-74 -184h136zM227 697h47l121 -161l-31 -19l-113 97l-114 -97l-31 19z" />
    <glyph glyph-name="Atildesmall" unicode="&#xf7e3;" horiz-adv-x="469" 
d="M213 466h74l185 -466h-106l-50 142h-177l-57 -142h-90zM297 196l-62 184l-74 -184h136zM382 671h5l26 -20c-26 -66 -64 -103 -109 -103c-21 0 -37 6 -72 28c-28 18 -38 22 -52 22c-23 0 -39 -14 -60 -53h-5l-27 19c33 73 65 105 108 105c20 0 24 -2 72 -29
c26 -15 40 -21 51 -21c25 0 46 17 63 52z" />
    <glyph glyph-name="Adieresissmall" unicode="&#xf7e4;" horiz-adv-x="469" 
d="M213 466h74l185 -466h-106l-50 142h-177l-57 -142h-90zM297 196l-62 184l-74 -184h136zM145 649c27 0 49 -22 49 -49c0 -26 -22 -48 -49 -48c-26 0 -48 22 -48 48c0 27 22 49 48 49zM343 649c28 0 49 -22 49 -49s-22 -48 -49 -48c-26 0 -48 22 -48 48c0 27 22 49 48 49z
" />
    <glyph glyph-name="Aringsmall" unicode="&#xf7e5;" horiz-adv-x="469" 
d="M213 466h74l185 -466h-106l-50 142h-177l-57 -142h-90zM297 196l-62 184l-74 -184h136zM246 725c60 0 108 -45 108 -101s-47 -99 -110 -99c-60 0 -107 44 -107 99c0 56 48 101 109 101zM247 681c-30 0 -52 -24 -52 -57s22 -58 52 -58c29 0 50 23 50 57
c0 33 -21 58 -50 58z" />
    <glyph glyph-name="AEsmall" unicode="&#xf7e6;" horiz-adv-x="686" 
d="M299 466h359v-58h-231v-135h202v-56h-202v-157h236v-60h-329v167h-166l-114 -167h-96zM338 222v188h-4l-129 -188h133z" />
    <glyph glyph-name="Ccedillasmall" unicode="&#xf7e7;" horiz-adv-x="499" 
d="M313 -9l-30 -48v-9c40 -24 52 -39 52 -62c0 -49 -59 -101 -115 -101c-29 0 -64 18 -64 33c0 4 1 6 4 9l23 24h13c12 -16 26 -23 42 -23c20 0 35 13 35 30c0 15 -14 28 -60 52v23l53 74c-35 4 -63 11 -91 22c-80 33 -134 118 -134 210c0 84 44 161 116 205
c51 31 110 46 183 46c45 0 86 -6 122 -17c11 -3 16 -8 15 -15c0 0 0 -2 -1 -4l-5 -37c-1 -7 -2 -8 -8 -11l-6 -3c-5 -2 -5 -2 -6 -2c-3 0 -5 1 -14 5c-34 17 -80 27 -122 27c-103 0 -167 -70 -167 -182c0 -113 70 -190 171 -190c45 0 88 11 125 31c2 1 3 1 5 1
c1 0 6 -1 6 -2l6 -3c4 -3 6 -5 6 -8v-5l-7 -37c-2 -10 -4 -12 -18 -16c-44 -12 -77 -16 -129 -17z" />
    <glyph glyph-name="Egravesmall" unicode="&#xf7e8;" horiz-adv-x="433" 
d="M79 466h328v-58h-231v-135h201v-56h-201v-157h236v-60h-333v466zM177 696l127 -167l-38 -9l-171 132v18l75 27z" />
    <glyph glyph-name="Eacutesmall" unicode="&#xf7e9;" horiz-adv-x="433" 
d="M79 466h328v-58h-231v-135h201v-56h-201v-157h236v-60h-333v466zM307 696l7 1l75 -27v-18l-171 -132l-38 9z" />
    <glyph glyph-name="Ecircumflexsmall" unicode="&#xf7ea;" horiz-adv-x="433" 
d="M79 466h328v-58h-231v-135h201v-56h-201v-157h236v-60h-333v466zM212 697h47l121 -161l-31 -19l-113 97l-114 -97l-31 19z" />
    <glyph glyph-name="Edieresissmall" unicode="&#xf7eb;" horiz-adv-x="433" 
d="M79 466h328v-58h-231v-135h201v-56h-201v-157h236v-60h-333v466zM142 649c27 0 49 -22 49 -49s-22 -48 -49 -48c-26 0 -48 22 -48 48c0 27 22 49 48 49zM327 649c28 0 49 -22 49 -49s-22 -48 -49 -48c-26 0 -48 22 -48 48c0 27 21 49 48 49z" />
    <glyph glyph-name="Igravesmall" unicode="&#xf7ec;" horiz-adv-x="254" 
d="M78 466h97v-466h-97v466zM72 696l108 -167l-38 -9l-152 132v18l75 27z" />
    <glyph glyph-name="Iacutesmall" unicode="&#xf7ed;" horiz-adv-x="254" 
d="M79 466h97v-466h-97v466zM181 696l7 1l75 -27v-18l-152 -132l-38 9z" />
    <glyph glyph-name="Icircumflexsmall" unicode="&#xf7ee;" horiz-adv-x="254" 
d="M79 466h97v-466h-97v466zM104 697h47l102 -161l-31 -19l-95 97l-94 -97l-31 19z" />
    <glyph glyph-name="Idieresissmall" unicode="&#xf7ef;" horiz-adv-x="254" 
d="M79 466h97v-466h-97v466zM49 649c27 0 49 -22 49 -49c0 -26 -22 -48 -49 -48c-26 0 -48 22 -48 48c0 27 22 49 48 49zM202 649c28 0 49 -22 49 -49s-22 -48 -49 -48c-26 0 -48 22 -48 48c0 27 21 49 48 49z" />
    <glyph glyph-name="Ethsmall" unicode="&#xf7f0;" horiz-adv-x="571" 
d="M79 269v197c97 2 162 3 188 3c98 0 145 -11 188 -46c48 -39 75 -103 75 -178c0 -86 -35 -158 -98 -202c-47 -33 -105 -46 -201 -46c-27 0 -100 1 -152 3v215h-71v54h71zM176 269h138v-54h-138v-161h69c66 0 105 12 132 40c29 30 46 82 46 145c0 68 -20 119 -57 148
c-26 20 -54 27 -107 27c-24 0 -52 -1 -83 -2v-143z" />
    <glyph glyph-name="Ntildesmall" unicode="&#xf7f1;" horiz-adv-x="571" 
d="M68 466h84l276 -339l-9 339h79l-1 -461l-65 -20l-295 363l9 -348h-79zM425 671h5l26 -20c-26 -66 -64 -103 -109 -103c-21 0 -37 6 -72 28c-28 18 -38 22 -52 22c-23 0 -39 -14 -60 -53h-5l-27 19c33 73 65 105 108 105c20 0 24 -2 72 -29c26 -15 40 -21 51 -21
c25 0 46 17 63 52z" />
    <glyph glyph-name="Ogravesmall" unicode="&#xf7f2;" horiz-adv-x="602" 
d="M313 476c145 0 248 -99 248 -237c0 -144 -113 -249 -268 -249c-144 0 -252 103 -252 239c0 142 116 247 272 247zM300 416c-90 0 -152 -71 -152 -176c0 -107 70 -190 160 -190c84 0 147 75 147 175c0 109 -66 191 -155 191zM228 696l127 -167l-38 -9l-171 132v18l75 27z
" />
    <glyph glyph-name="Oacutesmall" unicode="&#xf7f3;" horiz-adv-x="602" 
d="M313 476c145 0 248 -99 248 -237c0 -144 -113 -249 -268 -249c-144 0 -252 103 -252 239c0 142 116 247 272 247zM300 416c-90 0 -152 -71 -152 -176c0 -107 70 -190 160 -190c84 0 147 75 147 175c0 109 -66 191 -155 191zM374 696l7 1l75 -27v-18l-171 -132l-38 9z" />
    <glyph glyph-name="Ocircumflexsmall" unicode="&#xf7f4;" horiz-adv-x="602" 
d="M313 476c145 0 248 -99 248 -237c0 -144 -113 -249 -268 -249c-144 0 -252 103 -252 239c0 142 116 247 272 247zM300 416c-90 0 -152 -71 -152 -176c0 -107 70 -190 160 -190c84 0 147 75 147 175c0 109 -66 191 -155 191zM278 697h47l121 -161l-31 -19l-113 97
l-114 -97l-31 19z" />
    <glyph glyph-name="Otildesmall" unicode="&#xf7f5;" horiz-adv-x="602" 
d="M313 476c145 0 248 -99 248 -237c0 -144 -113 -249 -268 -249c-144 0 -252 103 -252 239c0 142 116 247 272 247zM300 416c-90 0 -152 -71 -152 -176c0 -107 70 -190 160 -190c84 0 147 75 147 175c0 109 -66 191 -155 191zM433 671h5l26 -20c-26 -66 -64 -103 -109 -103
c-21 0 -37 6 -72 28c-28 18 -38 22 -52 22c-23 0 -39 -14 -60 -53h-5l-27 19c33 73 65 105 108 105c20 0 24 -2 72 -29c26 -15 40 -21 51 -21c25 0 46 17 63 52z" />
    <glyph glyph-name="Odieresissmall" unicode="&#xf7f6;" horiz-adv-x="602" 
d="M313 476c145 0 248 -99 248 -237c0 -144 -113 -249 -268 -249c-144 0 -252 103 -252 239c0 142 116 247 272 247zM300 416c-90 0 -152 -71 -152 -176c0 -107 70 -190 160 -190c84 0 147 75 147 175c0 109 -66 191 -155 191zM201 649c27 0 49 -22 49 -49
c0 -26 -22 -48 -49 -48c-26 0 -48 22 -48 48c0 27 22 49 48 49zM399 649c28 0 49 -22 49 -49s-22 -48 -49 -48c-26 0 -48 22 -48 48c0 27 22 49 48 49z" />
    <glyph glyph-name="OEsmall" unicode="&#xf6fa;" horiz-adv-x="756" 
d="M407 466h322v-58h-232v-135h202v-56h-202v-157h237v-60h-327v15c-39 -17 -75 -25 -115 -25c-143 0 -251 105 -251 243c0 141 108 243 256 243c41 0 77 -8 110 -25v15zM404 77v314c-32 18 -57 25 -92 25c-100 0 -164 -66 -164 -169c0 -114 70 -197 167 -197
c31 0 59 8 89 27z" />
    <glyph glyph-name="Oslashsmall" unicode="&#xf7f8;" horiz-adv-x="602" 
d="M470 499h54l-53 -72c58 -44 90 -112 90 -189c0 -144 -113 -248 -268 -248c-45 0 -81 8 -121 27l-39 -54h-55l56 77c-59 47 -93 116 -93 190c0 140 117 246 270 246c47 0 86 -9 122 -27zM420 367l-203 -295c28 -18 59 -27 89 -27c88 0 152 77 152 183c0 50 -13 99 -38 139
zM184 99l205 296c-25 17 -57 26 -89 26c-92 0 -156 -75 -156 -182c0 -52 15 -104 40 -140z" />
    <glyph glyph-name="Ugravesmall" unicode="&#xf7f9;" horiz-adv-x="546" 
d="M71 466h97v-250c0 -91 2 -105 19 -125c17 -22 50 -34 91 -34c49 0 87 18 105 49c11 21 15 51 15 123v237h80l-3 -236c-1 -111 -14 -154 -55 -190c-38 -32 -95 -50 -164 -50c-73 0 -124 20 -155 62c-25 34 -30 61 -30 162v252zM200 696l127 -167l-38 -9l-171 132v18l75 27
z" />
    <glyph glyph-name="Uacutesmall" unicode="&#xf7fa;" horiz-adv-x="546" 
d="M71 466h97v-250c0 -91 2 -105 19 -125c17 -22 50 -34 91 -34c49 0 87 18 105 49c11 21 15 51 15 123v237h80l-3 -236c-1 -111 -14 -154 -55 -190c-38 -32 -95 -50 -164 -50c-73 0 -124 20 -155 62c-25 34 -30 61 -30 162v252zM346 696l7 1l75 -27v-18l-171 -132l-38 9z
" />
    <glyph glyph-name="Ucircumflexsmall" unicode="&#xf7fb;" horiz-adv-x="546" 
d="M71 466h97v-250c0 -91 2 -105 19 -125c17 -22 50 -34 91 -34c49 0 87 18 105 49c11 21 15 51 15 123v237h80l-3 -236c-1 -111 -14 -154 -55 -190c-38 -32 -95 -50 -164 -50c-73 0 -124 20 -155 62c-25 34 -30 61 -30 162v252zM250 697h47l121 -161l-31 -19l-113 97
l-114 -97l-31 19z" />
    <glyph glyph-name="Udieresissmall" unicode="&#xf7fc;" horiz-adv-x="546" 
d="M71 466h97v-250c0 -91 2 -105 19 -125c17 -22 50 -34 91 -34c49 0 87 18 105 49c11 21 15 51 15 123v237h80l-3 -236c-1 -111 -14 -154 -55 -190c-38 -32 -95 -50 -164 -50c-73 0 -124 20 -155 62c-25 34 -30 61 -30 162v252zM182 649c27 0 49 -22 49 -49
c0 -26 -22 -48 -49 -48c-26 0 -48 22 -48 48c0 27 22 49 48 49zM380 649c28 0 49 -22 49 -49s-22 -48 -49 -48c-26 0 -48 22 -48 48c0 27 22 49 48 49z" />
    <glyph glyph-name="Yacutesmall" unicode="&#xf7fd;" horiz-adv-x="413" 
d="M-18 466h113l123 -205l127 205h101l-195 -262v-204h-97v202zM280 696l7 1l75 -27v-18l-171 -132l-38 9z" />
    <glyph glyph-name="Thornsmall" unicode="&#xf7fe;" horiz-adv-x="453" 
d="M79 466h94v-72c27 1 46 2 70 2c64 0 102 -7 132 -24c40 -23 64 -66 64 -117c0 -52 -26 -97 -72 -124c-34 -21 -76 -29 -149 -29h-45v-102h-94v466zM173 338v-178c17 -1 25 -1 43 -1c84 0 117 26 117 92c0 37 -13 64 -38 77c-15 8 -34 11 -70 11c-15 0 -27 0 -52 -1z" />
    <glyph glyph-name="Ydieresissmall" unicode="&#xf7ff;" horiz-adv-x="413" 
d="M-18 466h113l123 -205l127 205h101l-195 -262v-204h-97v202zM120 649c27 0 49 -22 49 -49s-22 -48 -49 -48c-26 0 -48 22 -48 48c0 27 22 49 48 49zM305 649c28 0 49 -22 49 -49s-22 -48 -49 -48c-26 0 -48 22 -48 48c0 27 21 49 48 49z" />
    <glyph glyph-name="Abreve" unicode="&#x102;" horiz-adv-x="633" 
d="M301 634h78l252 -634h-113l-73 199h-264l-81 -199h-97zM422 259l-102 274l-113 -274h215zM186 835h46c10 -46 44 -72 96 -72c53 0 87 25 97 72h45c1 -6 1 -11 1 -13c0 -76 -59 -130 -143 -130s-142 54 -142 131v12z" />
    <glyph glyph-name="Aogonek" unicode="&#x104;" horiz-adv-x="633" 
d="M301 634h78l252 -634c-54 -56 -72 -86 -72 -116c0 -25 19 -40 53 -40c12 0 27 2 41 5h8l-2 -11c-1 -12 -4 -17 -12 -22c-15 -9 -48 -17 -71 -17c-52 0 -88 31 -88 76c0 40 29 80 90 125h-60l-73 199h-264l-81 -199h-97zM422 259l-102 274l-113 -274h215z" />
    <glyph glyph-name="Cacute" unicode="&#x106;" horiz-adv-x="644" 
d="M623 605l-7 -51c-1 -7 -1 -8 -6 -11l-8 -3c-1 -1 -4 -2 -6 -2s-2 0 -17 7c-49 24 -117 38 -178 38c-60 0 -115 -18 -157 -51c-58 -46 -87 -117 -87 -210c0 -161 102 -273 249 -273c66 0 136 18 184 48c2 1 3 1 4 1s2 -1 3 -2l3 -1l7 -5c3 -2 4 -3 4 -6v-6l-9 -50
c-1 -10 -3 -11 -15 -15c-49 -15 -127 -25 -193 -25c-87 0 -154 17 -210 54c-87 56 -139 155 -139 263c0 113 56 216 151 278c65 43 144 63 242 63c63 0 147 -12 176 -25c7 -2 10 -7 9 -13v-3zM484 857h9l75 -37l-3 -19l-195 -117l-39 13z" />
    <glyph glyph-name="Ccaron" unicode="&#x10c;" horiz-adv-x="644" 
d="M623 605l-7 -51c-1 -7 -1 -8 -6 -11l-8 -3c-1 -1 -4 -2 -6 -2s-2 0 -17 7c-49 24 -117 38 -178 38c-60 0 -115 -18 -157 -51c-58 -46 -87 -117 -87 -210c0 -161 102 -273 249 -273c66 0 136 18 184 48c2 1 3 1 4 1s2 -1 3 -2l3 -1l7 -5c3 -2 4 -3 4 -6v-6l-9 -50
c-1 -10 -3 -11 -15 -15c-49 -15 -127 -25 -193 -25c-87 0 -154 17 -210 54c-87 56 -139 155 -139 263c0 113 56 216 151 278c65 43 144 63 242 63c63 0 147 -12 176 -25c7 -2 10 -7 9 -13v-3zM429 688h-46l-141 161l33 22l131 -100l131 100l34 -22z" />
    <glyph glyph-name="Dcaron" unicode="&#x10e;" horiz-adv-x="737" 
d="M91 0v634c131 5 195 7 242 7c131 0 197 -16 255 -64c67 -54 104 -140 104 -243c0 -116 -48 -213 -134 -272c-64 -44 -142 -62 -272 -62h-195zM194 62h112c94 0 158 18 200 56c47 43 74 119 74 208c0 98 -32 173 -91 214c-42 30 -86 40 -171 40c-35 0 -35 0 -124 -4v-514z
M357 688h-46l-141 161l33 22l131 -100l131 100l34 -22z" />
    <glyph glyph-name="Ecaron" unicode="&#x11a;" horiz-adv-x="552" 
d="M91 634h429v-64h-326v-202h290v-65h-290v-235h333v-68h-436v634zM327 688h-46l-141 161l33 22l131 -100l131 100l34 -22z" />
    <glyph glyph-name="Edotaccent" unicode="&#x116;" horiz-adv-x="552" 
d="M91 634h429v-64h-326v-202h290v-65h-290v-235h333v-68h-436v634zM303 805c29 0 52 -24 52 -53s-24 -52 -53 -52c-28 0 -52 24 -52 52c0 29 23 53 53 53z" />
    <glyph glyph-name="Eogonek" unicode="&#x118;" horiz-adv-x="552" 
d="M91 634h429v-64h-326v-202h290v-65h-290v-235h333v-68c-48 -46 -72 -85 -72 -116c0 -25 19 -40 53 -40c12 0 27 2 41 5h8l-1 -11c-2 -12 -5 -17 -12 -22c-15 -9 -49 -17 -72 -17c-52 0 -88 31 -88 76c0 40 29 80 90 125h-383v634z" />
    <glyph glyph-name="Gbreve" unicode="&#x11e;" horiz-adv-x="711" 
d="M545 315h103v-297c-85 -19 -175 -30 -245 -30c-93 0 -168 18 -225 54c-83 53 -133 151 -133 260c0 205 158 344 392 344c54 0 149 -12 174 -23c8 -3 11 -7 11 -15l3 -55c0 -5 0 -6 -4 -9l-12 -8c-2 -2 -3 -2 -4 -2c-2 0 -4 1 -19 9c-47 25 -112 40 -169 40
c-159 0 -260 -104 -260 -266c0 -166 101 -266 268 -266c39 0 72 4 120 16v248zM258 835h46c10 -46 44 -72 96 -72c53 0 87 25 97 72h45c1 -6 1 -11 1 -13c0 -76 -59 -130 -143 -130s-142 54 -142 131v12z" />
    <glyph glyph-name="Idotaccent" unicode="&#x130;" horiz-adv-x="285" 
d="M91 634h103v-634h-103v634zM142 805c29 0 52 -24 52 -53s-24 -52 -53 -52c-28 0 -52 24 -52 52c0 29 23 53 53 53z" />
    <glyph glyph-name="Lacute" unicode="&#x139;" horiz-adv-x="489" 
d="M91 634h103v-566h309v-68h-412v634zM294 857h9l75 -37l-3 -19l-195 -117l-39 13z" />
    <glyph glyph-name="Lcaron" unicode="&#x13d;" horiz-adv-x="489" 
d="M91 634h103v-566h309v-68h-412v634zM290 430v5c51 35 78 68 78 95c0 12 -6 19 -20 24c-26 9 -35 19 -35 40c0 24 20 42 48 42c39 0 69 -35 69 -80s-25 -87 -77 -129c-17 -14 -33 -24 -36 -24c-2 0 -4 1 -6 3z" />
    <glyph glyph-name="Nacute" unicode="&#x143;" horiz-adv-x="737" 
d="M83 634h75l422 -480l-12 480h82l-1 -629l-53 -16l-445 504l12 -493h-82zM480 857h9l75 -37l-3 -19l-195 -117l-39 13z" />
    <glyph glyph-name="Ncaron" unicode="&#x147;" horiz-adv-x="737" 
d="M83 634h75l422 -480l-12 480h82l-1 -629l-53 -16l-445 504l12 -493h-82zM408 688h-46l-141 161l33 22l131 -100l131 100l34 -22z" />
    <glyph glyph-name="Ohungarumlaut" unicode="&#x150;" horiz-adv-x="785" 
d="M407 649c196 0 334 -135 334 -325c0 -197 -150 -339 -357 -339c-83 0 -160 25 -218 72c-75 59 -121 157 -121 255c0 193 155 337 362 337zM391 583c-139 0 -234 -104 -234 -256c0 -155 107 -275 245 -275c131 0 227 108 227 255c0 158 -102 276 -238 276zM435 850h6
l59 -29l-1 -18l-161 -125l-38 10zM591 850h6l60 -29l-2 -18l-161 -125l-38 10z" />
    <glyph glyph-name="Racute" unicode="&#x154;" horiz-adv-x="626" 
d="M91 0v634c28 1 65 1 111 2c38 1 75 2 91 2c89 0 138 -8 174 -30c49 -28 77 -80 77 -142c0 -83 -46 -139 -141 -174c41 -80 106 -175 146 -212c24 -23 54 -36 88 -39l3 -4l-10 -33c-2 -8 -15 -12 -41 -12c-28 0 -64 9 -93 22c-55 26 -105 92 -196 258
c-25 -3 -36 -4 -63 -4c-14 0 -24 0 -43 1v-269h-103zM194 574v-245c27 -1 45 -2 65 -2c122 0 175 39 175 130c0 51 -20 87 -57 105c-22 10 -52 14 -103 14c-21 0 -47 -1 -80 -2zM391 857h9l75 -37l-3 -19l-195 -117l-39 13z" />
    <glyph glyph-name="Rcaron" unicode="&#x158;" horiz-adv-x="626" 
d="M91 0v634c28 1 65 1 111 2c38 1 75 2 91 2c89 0 138 -8 174 -30c49 -28 77 -80 77 -142c0 -83 -46 -139 -141 -174c41 -80 106 -175 146 -212c24 -23 54 -36 88 -39l3 -4l-10 -33c-2 -8 -15 -12 -41 -12c-28 0 -64 9 -93 22c-55 26 -105 92 -196 258
c-25 -3 -36 -4 -63 -4c-14 0 -24 0 -43 1v-269h-103zM194 574v-245c27 -1 45 -2 65 -2c122 0 175 39 175 130c0 51 -20 87 -57 105c-22 10 -52 14 -103 14c-21 0 -47 -1 -80 -2zM319 688h-46l-141 161l33 22l131 -100l131 100l34 -22z" />
    <glyph glyph-name="Sacute" unicode="&#x15a;" horiz-adv-x="507" 
d="M432 613l8 -56l1 -5c0 -2 -2 -5 -4 -6l-17 -7c-1 -1 -4 -2 -5 -2c-2 0 -6 2 -14 8c-27 20 -89 38 -132 38c-75 0 -123 -37 -123 -96c0 -27 11 -50 31 -65c21 -16 37 -24 111 -56c79 -35 107 -51 134 -78c29 -28 46 -68 46 -109c0 -112 -102 -191 -247 -191
c-47 0 -136 13 -168 24c-12 4 -15 7 -16 15l-8 61c-1 3 -1 5 -1 7s2 4 4 6l15 8c5 2 5 2 6 2c2 0 2 0 12 -7c42 -27 117 -49 171 -49c79 0 134 41 134 102c0 24 -10 47 -26 63c-18 18 -41 31 -105 58c-83 35 -113 52 -142 78c-30 27 -47 67 -47 110c0 109 95 180 239 180
c43 0 109 -9 132 -19c7 -3 10 -6 11 -14zM360 857h9l75 -37l-3 -19l-195 -117l-39 13z" />
    <glyph glyph-name="Scedilla" unicode="&#x15e;" horiz-adv-x="507" 
d="M279 -7l-32 -51v-10c40 -24 53 -39 53 -64c0 -50 -60 -103 -118 -103c-30 0 -65 19 -65 34c0 4 1 7 4 10l23 24h14c13 -17 26 -24 43 -24c20 0 36 13 36 31c0 16 -14 28 -62 53v23l52 73c-41 -1 -91 5 -149 17c-34 7 -40 10 -41 21l-9 62v6c0 2 2 5 4 6l15 8c4 2 4 2 6 2
s2 0 12 -7c42 -27 117 -49 171 -49c79 0 134 41 134 102c0 24 -10 47 -26 63c-18 18 -41 31 -105 58c-84 35 -113 51 -142 78c-30 27 -47 67 -47 110c0 109 95 180 239 180c44 0 110 -9 133 -19c6 -3 9 -6 10 -14l8 -56c1 -3 1 -5 1 -5c0 -2 -2 -5 -4 -6l-16 -7
c-2 -1 -4 -2 -6 -2s-6 2 -13 8c-28 20 -89 38 -133 38c-75 0 -123 -37 -123 -96c0 -27 11 -49 31 -65c21 -16 36 -23 111 -56c78 -34 107 -51 135 -78s45 -68 45 -109c0 -64 -37 -124 -98 -157c-27 -14 -51 -22 -91 -29z" />
    <glyph glyph-name="Scedilla" unicode="&#xf6c1;" horiz-adv-x="507" 
d="M279 -7l-32 -51v-10c40 -24 53 -39 53 -64c0 -50 -60 -103 -118 -103c-30 0 -65 19 -65 34c0 4 1 7 4 10l23 24h14c13 -17 26 -24 43 -24c20 0 36 13 36 31c0 16 -14 28 -62 53v23l52 73c-41 -1 -91 5 -149 17c-34 7 -40 10 -41 21l-9 62v6c0 2 2 5 4 6l15 8c4 2 4 2 6 2
s2 0 12 -7c42 -27 117 -49 171 -49c79 0 134 41 134 102c0 24 -10 47 -26 63c-18 18 -41 31 -105 58c-84 35 -113 51 -142 78c-30 27 -47 67 -47 110c0 109 95 180 239 180c44 0 110 -9 133 -19c6 -3 9 -6 10 -14l8 -56c1 -3 1 -5 1 -5c0 -2 -2 -5 -4 -6l-16 -7
c-2 -1 -4 -2 -6 -2s-6 2 -13 8c-28 20 -89 38 -133 38c-75 0 -123 -37 -123 -96c0 -27 11 -49 31 -65c21 -16 36 -23 111 -56c78 -34 107 -51 135 -78s45 -68 45 -109c0 -64 -37 -124 -98 -157c-27 -14 -51 -22 -91 -29z" />
    <glyph glyph-name="Tcaron" unicode="&#x164;" horiz-adv-x="570" 
d="M-26 634h623v-67h-260v-567h-103v567h-260v67zM308 688h-46l-141 161l33 22l131 -100l131 100l34 -22z" />
    <glyph glyph-name="Uring" unicode="&#x16e;" horiz-adv-x="700" 
d="M82 634h103v-340c0 -128 4 -151 28 -182c23 -30 77 -48 141 -48c74 0 135 27 161 72c18 31 24 72 24 176v322h82l-3 -321c-1 -151 -18 -210 -71 -257c-50 -44 -127 -68 -220 -68c-101 0 -170 27 -208 81c-31 45 -37 83 -37 222v343zM367 884c62 0 111 -46 111 -103
s-49 -101 -113 -101c-60 0 -109 45 -109 101c0 57 49 103 111 103zM368 839c-31 0 -53 -24 -53 -58c0 -33 23 -58 53 -58s51 23 51 57s-21 59 -51 59z" />
    <glyph glyph-name="Uhungarumlaut" unicode="&#x170;" horiz-adv-x="700" 
d="M82 634h103v-340c0 -128 4 -151 28 -182c23 -30 77 -48 141 -48c74 0 135 27 161 72c18 31 24 72 24 176v322h82l-3 -321c-1 -151 -18 -210 -71 -257c-50 -44 -127 -68 -220 -68c-101 0 -170 27 -208 81c-31 45 -37 83 -37 222v343zM393 850h6l59 -29l-1 -18l-161 -125
l-38 10zM549 850h6l60 -29l-2 -18l-161 -125l-38 10z" />
    <glyph glyph-name="Zacute" unicode="&#x179;" horiz-adv-x="563" 
d="M43 634h509v-42l-402 -524h403l-11 -68h-532v43l406 524h-373v67zM387 857h9l75 -37l-3 -19l-195 -117l-39 13z" />
    <glyph glyph-name="Zdotaccent" unicode="&#x17b;" horiz-adv-x="563" 
d="M43 634h509v-42l-402 -524h403l-11 -68h-532v43l406 524h-373v67zM288 805c29 0 52 -24 52 -53s-24 -52 -53 -52c-28 0 -52 24 -52 52c0 29 23 53 53 53z" />
    <glyph glyph-name="Amacron" unicode="&#x100;" horiz-adv-x="633" 
d="M301 634h78l252 -634h-113l-73 199h-264l-81 -199h-97zM422 259l-102 274l-113 -274h215zM196 796h270v-71h-270v71z" />
    <glyph glyph-name="Tcommaaccent" unicode="&#x162;" horiz-adv-x="570" 
d="M-26 634h623v-67h-260v-567h-103v567h-260v67zM208 -254v5c50 34 78 68 78 96c0 11 -7 18 -20 23c-26 9 -35 19 -35 40c0 24 21 42 48 42c39 0 69 -35 69 -79c0 -46 -25 -89 -77 -130c-18 -14 -33 -24 -36 -24c-2 0 -3 0 -6 4z" />
    <glyph glyph-name="Tcommaaccent" unicode="&#x21a;" horiz-adv-x="570" 
d="M-26 634h623v-67h-260v-567h-103v567h-260v67zM208 -254v5c50 34 78 68 78 96c0 11 -7 18 -20 23c-26 9 -35 19 -35 40c0 24 21 42 48 42c39 0 69 -35 69 -79c0 -46 -25 -89 -77 -130c-18 -14 -33 -24 -36 -24c-2 0 -3 0 -6 4z" />
    <glyph glyph-name="Emacron" unicode="&#x112;" horiz-adv-x="552" 
d="M91 634h429v-64h-326v-202h290v-65h-290v-235h333v-68h-436v634zM180 796h270v-71h-270v71z" />
    <glyph glyph-name="Imacron" unicode="&#x12a;" horiz-adv-x="285" 
d="M91 634h103v-634h-103v634zM30 796h225v-71h-225v71z" />
    <glyph glyph-name="Iogonek" unicode="&#x12e;" horiz-adv-x="285" 
d="M92 634h102v-634c-51 -53 -71 -86 -71 -116c0 -25 19 -40 52 -40c12 0 27 2 41 5h8l-1 -11c-2 -12 -5 -17 -12 -22c-16 -9 -48 -17 -71 -17c-52 0 -88 32 -88 76c0 40 29 80 90 125h-50v634z" />
    <glyph glyph-name="Kcommaaccent" unicode="&#x136;" horiz-adv-x="607" 
d="M91 634h103v-634h-103v634zM498 634h122l-308 -277l318 -357h-137l-293 339zM254 -254v5c50 34 78 68 78 96c0 11 -7 18 -20 23c-26 9 -35 19 -35 40c0 24 21 42 48 42c39 0 69 -35 69 -79c0 -46 -25 -89 -77 -130c-18 -14 -33 -24 -36 -24c-2 0 -3 0 -6 4z" />
    <glyph glyph-name="Lcommaaccent" unicode="&#x13b;" horiz-adv-x="489" 
d="M91 634h103v-566h309v-68h-412v634zM217 -254v5c50 34 78 68 78 96c0 11 -7 18 -20 23c-26 9 -35 19 -35 40c0 24 21 42 48 42c39 0 69 -35 69 -79c0 -46 -25 -89 -77 -130c-18 -14 -33 -24 -36 -24c-2 0 -3 0 -6 4z" />
    <glyph glyph-name="Ncommaaccent" unicode="&#x145;" horiz-adv-x="737" 
d="M83 634h75l422 -480l-12 480h82l-1 -629l-53 -16l-445 504l12 -493h-82zM291 -254v5c50 34 78 68 78 96c0 11 -7 18 -20 23c-26 9 -35 19 -35 40c0 24 21 42 48 42c39 0 69 -35 69 -79c0 -46 -25 -89 -77 -130c-18 -14 -33 -24 -36 -24c-2 0 -3 0 -6 4z" />
    <glyph glyph-name="Omacron" unicode="&#x14c;" horiz-adv-x="785" 
d="M407 649c196 0 334 -135 334 -325c0 -197 -150 -339 -357 -339c-83 0 -160 25 -218 72c-75 59 -121 157 -121 255c0 193 155 337 362 337zM391 583c-139 0 -234 -104 -234 -256c0 -155 107 -275 245 -275c131 0 227 108 227 255c0 158 -102 276 -238 276zM258 796h270
v-71h-270v71z" />
    <glyph glyph-name="Rcommaaccent" unicode="&#x156;" horiz-adv-x="626" 
d="M91 0v634c28 1 65 1 111 2c38 1 75 2 91 2c89 0 138 -8 174 -30c49 -28 77 -80 77 -142c0 -83 -46 -139 -141 -174c41 -80 106 -175 146 -212c24 -23 54 -36 88 -39l3 -4l-10 -33c-2 -8 -15 -12 -41 -12c-28 0 -64 9 -93 22c-55 26 -105 92 -196 258
c-25 -3 -36 -4 -63 -4c-14 0 -24 0 -43 1v-269h-103zM194 574v-245c27 -1 45 -2 65 -2c122 0 175 39 175 130c0 51 -20 87 -57 105c-22 10 -52 14 -103 14c-21 0 -47 -1 -80 -2zM246 -254v5c50 34 78 68 78 96c0 11 -7 18 -20 23c-26 9 -35 19 -35 40c0 24 21 42 48 42
c39 0 69 -35 69 -79c0 -46 -25 -89 -77 -130c-18 -14 -33 -24 -36 -24c-2 0 -3 0 -6 4z" />
    <glyph glyph-name="Gcommaaccent" unicode="&#x122;" horiz-adv-x="711" 
d="M545 315h103v-297c-85 -19 -175 -30 -245 -30c-93 0 -168 18 -225 54c-83 53 -133 151 -133 260c0 205 158 344 392 344c54 0 149 -12 174 -23c8 -3 11 -7 11 -15l3 -55c0 -5 0 -6 -4 -9l-12 -8c-2 -2 -3 -2 -4 -2c-2 0 -4 1 -19 9c-47 25 -112 40 -169 40
c-159 0 -260 -104 -260 -266c0 -166 101 -266 268 -266c39 0 72 4 120 16v248zM334 -254v5c50 34 78 68 78 96c0 11 -7 18 -20 23c-26 9 -35 19 -35 40c0 24 21 42 48 42c39 0 69 -35 69 -79c0 -46 -25 -89 -77 -130c-18 -14 -33 -24 -36 -24c-2 0 -3 0 -6 4z" />
    <glyph glyph-name="Umacron" unicode="&#x16a;" horiz-adv-x="700" 
d="M82 634h103v-340c0 -128 4 -151 28 -182c23 -30 77 -48 141 -48c74 0 135 27 161 72c18 31 24 72 24 176v322h82l-3 -321c-1 -151 -18 -210 -71 -257c-50 -44 -127 -68 -220 -68c-101 0 -170 27 -208 81c-31 45 -37 83 -37 222v343zM224 796h270v-71h-270v71z" />
    <glyph glyph-name="Uogonek" unicode="&#x172;" horiz-adv-x="700" 
d="M82 634h103v-340c0 -128 4 -151 28 -182c23 -30 77 -48 141 -48c74 0 135 27 161 72c18 31 24 72 24 176v322h82l-3 -321c-2 -187 -20 -227 -128 -297c-50 -35 -89 -92 -89 -131c0 -26 19 -41 52 -41c12 0 27 2 41 5h8l-1 -11c-2 -12 -5 -17 -12 -22
c-16 -9 -48 -17 -71 -17c-52 0 -88 31 -88 76c0 39 28 79 84 121c-29 -6 -55 -8 -86 -8c-102 0 -171 27 -209 81c-31 45 -37 83 -37 222v343z" />
    <glyph glyph-name="abreve" unicode="&#x103;" horiz-adv-x="497" 
d="M78 320l-3 50c1 7 3 12 6 14c39 29 113 49 179 49c56 0 96 -13 121 -39c20 -22 26 -47 26 -102v-10l-3 -170v-9c0 -37 3 -43 24 -43c17 0 36 5 62 17l4 -3v-39c0 -7 -2 -9 -10 -14c-27 -16 -79 -31 -107 -31c-27 0 -45 12 -54 38c-68 -25 -122 -38 -164 -38
c-68 0 -109 45 -109 120c0 57 21 85 75 102c49 15 106 26 190 36c-1 68 -1 71 -6 84c-9 23 -35 35 -78 35c-58 0 -93 -15 -125 -54zM314 79v119c-51 -8 -89 -15 -126 -25c-39 -11 -47 -20 -47 -53c0 -42 21 -61 66 -61c28 0 53 5 107 20zM117 628h42c9 -51 39 -77 90 -77
c50 0 81 27 90 77h41c1 -5 1 -11 1 -12c0 -77 -56 -133 -132 -133c-77 0 -132 56 -132 135v10z" />
    <glyph glyph-name="aogonek" unicode="&#x105;" horiz-adv-x="497" 
d="M106 313l-28 7l-3 50c1 7 3 12 6 14c39 29 113 49 179 49c56 0 96 -13 121 -39c20 -22 26 -47 26 -102v-10l-3 -170v-9c0 -37 3 -43 24 -43c17 0 36 5 62 17l4 -3v-39c0 -10 0 -10 -29 -24c-52 -26 -93 -80 -93 -121c0 -24 19 -39 49 -39c13 0 28 2 41 5h8l-2 -11
c-1 -12 -3 -16 -11 -21c-15 -9 -46 -17 -69 -17c-50 0 -85 30 -85 74c0 35 22 70 71 110c-27 1 -43 14 -51 37c-68 -25 -122 -38 -164 -38c-68 0 -109 45 -109 120c0 57 21 85 75 102c49 15 106 26 190 36c-1 68 -1 71 -6 84c-9 23 -35 35 -78 35c-58 0 -93 -15 -125 -54z
M314 79v119c-51 -8 -89 -15 -126 -25c-39 -11 -47 -20 -47 -53c0 -42 21 -61 66 -61c28 0 53 5 107 20z" />
    <glyph glyph-name="cacute" unicode="&#x107;" horiz-adv-x="437" 
d="M383 332h-18c-35 24 -60 32 -97 32c-82 0 -128 -51 -128 -143c0 -97 53 -160 134 -160c45 0 89 14 131 40l8 -4v-37c0 -7 -2 -10 -10 -16c-41 -31 -117 -56 -171 -56c-112 0 -190 81 -190 200c0 140 112 245 261 245c44 0 87 -13 111 -32c5 -5 6 -7 6 -21
c0 -11 -1 -14 -6 -19zM342 642l6 2l75 -24v-18l-162 -136l-38 7z" />
    <glyph glyph-name="ccaron" unicode="&#x10d;" horiz-adv-x="437" 
d="M383 332h-18c-35 24 -60 32 -97 32c-82 0 -128 -51 -128 -143c0 -97 53 -160 134 -160c45 0 89 14 131 40l8 -4v-37c0 -7 -2 -10 -10 -16c-41 -31 -117 -56 -171 -56c-112 0 -190 81 -190 200c0 140 112 245 261 245c44 0 87 -13 111 -32c5 -5 6 -7 6 -21
c0 -11 -1 -14 -6 -19zM298 473h-48l-114 161l30 18l108 -95l107 95l31 -18z" />
    <glyph glyph-name="dcaron" unicode="&#x10f;" horiz-adv-x="623" 
d="M388 691h94v-691h-94v42c-52 -34 -105 -51 -157 -51c-114 0 -189 79 -189 197c0 139 113 242 265 242c27 0 45 -2 81 -9v270zM388 95v236c-32 19 -64 27 -106 27c-92 0 -142 -51 -142 -144s54 -153 137 -153c35 0 71 11 111 34zM512 491v5c47 32 75 67 75 93
c0 11 -6 18 -20 23c-25 9 -33 18 -33 39c0 23 20 41 46 41c38 0 67 -34 67 -78s-23 -83 -73 -124c-18 -15 -33 -25 -37 -25c-1 0 -1 0 -4 4z" />
    <glyph glyph-name="ecaron" unicode="&#x11b;" horiz-adv-x="452" 
d="M419 226l-276 -30c5 -88 49 -136 125 -136c45 0 83 11 130 38h8l13 -38c1 -1 1 -3 1 -4c0 -3 -4 -7 -16 -15c-50 -33 -114 -53 -169 -53c-120 0 -193 81 -193 213c0 139 83 232 206 232c111 0 170 -71 171 -207zM142 249l173 22c-3 70 -31 107 -79 107
c-56 0 -91 -49 -94 -129zM267 473h-48l-114 161l30 18l108 -95l107 95l31 -18z" />
    <glyph glyph-name="edotaccent" unicode="&#x117;" horiz-adv-x="452" 
d="M419 226l-276 -30c5 -88 49 -136 125 -136c45 0 83 11 130 38h8l13 -38c1 -1 1 -3 1 -4c0 -3 -4 -7 -16 -15c-50 -33 -114 -53 -169 -53c-120 0 -193 81 -193 213c0 139 83 232 206 232c111 0 170 -71 171 -207zM142 249l173 22c-3 70 -31 107 -79 107
c-56 0 -91 -49 -94 -129zM241 600c27 0 50 -23 50 -51c0 -27 -23 -49 -50 -49s-50 23 -50 50s23 50 50 50z" />
    <glyph glyph-name="eogonek" unicode="&#x119;" horiz-adv-x="452" 
d="M419 226l-276 -30c5 -88 49 -136 125 -136c45 0 83 11 130 38h8l13 -38c1 -1 1 -3 1 -4c0 -8 -21 -21 -75 -48c-41 -20 -86 -82 -86 -118c0 -24 19 -39 49 -39c14 0 29 2 42 5h8l-2 -11c-2 -12 -4 -16 -12 -21c-15 -9 -45 -17 -68 -17c-51 0 -86 31 -86 74
c0 34 23 70 69 108c-10 -1 -14 -1 -24 -1c-120 0 -193 81 -193 213c0 139 83 232 206 232c111 0 170 -71 171 -207zM142 249l173 22c-3 70 -31 107 -79 107c-56 0 -91 -49 -94 -129z" />
    <glyph glyph-name="gbreve" unicode="&#x11f;" horiz-adv-x="496" 
d="M485 421v-60h-98c27 -29 38 -59 38 -99c0 -62 -33 -112 -92 -140c-29 -14 -36 -16 -93 -33c-15 -4 -31 -9 -50 -14c-11 -4 -15 -8 -15 -15c0 -20 20 -25 129 -39c88 -11 115 -17 142 -36c29 -19 43 -46 43 -79c0 -95 -133 -174 -296 -174c-110 0 -178 39 -178 103
c0 54 46 90 165 132c-64 12 -88 31 -88 70c0 22 8 35 28 45c9 4 17 8 64 25c-41 8 -60 17 -82 36c-32 28 -50 69 -50 116c0 101 79 174 187 174c28 0 49 -3 82 -13zM255 144c53 15 78 49 78 105c0 78 -40 131 -98 131c-56 0 -91 -41 -91 -106c0 -77 41 -125 111 -130z
M237 -46c-87 -33 -129 -67 -129 -103s51 -62 123 -62c96 0 178 45 178 97c0 25 -17 41 -51 49s-80 15 -121 19zM122 628h42c9 -51 39 -77 90 -77c50 0 81 27 90 77h41c1 -5 1 -11 1 -12c0 -77 -56 -133 -132 -133c-77 0 -132 56 -132 135v10z" />
    <glyph glyph-name="lacute" unicode="&#x13a;" horiz-adv-x="241" 
d="M73 691h95v-691h-95v691zM239 897h9l75 -37l-3 -19l-195 -117l-39 13z" />
    <glyph glyph-name="lcaron" unicode="&#x13e;" horiz-adv-x="308" 
d="M73 691h95v-691h-95v691zM198 491v5c47 32 75 67 75 93c0 11 -6 18 -20 23c-25 9 -33 18 -33 39c0 23 20 41 46 41c38 0 67 -34 67 -78s-23 -83 -73 -124c-18 -15 -33 -25 -37 -25c-1 0 -1 0 -4 4z" />
    <glyph glyph-name="nacute" unicode="&#x144;" horiz-adv-x="537" 
d="M73 422h94v-59c76 53 119 70 175 70c49 0 87 -19 107 -54c15 -26 17 -42 17 -123v-256h-95v239c0 56 -1 69 -9 85c-10 21 -29 32 -56 32c-40 0 -87 -20 -138 -58v-298h-95v422zM359 642l6 2l75 -24v-18l-162 -136l-38 7z" />
    <glyph glyph-name="ncaron" unicode="&#x148;" horiz-adv-x="537" 
d="M73 422h94v-59c76 53 119 70 175 70c49 0 87 -19 107 -54c15 -26 17 -42 17 -123v-256h-95v239c0 56 -1 69 -9 85c-10 21 -29 32 -56 32c-40 0 -87 -20 -138 -58v-298h-95v422zM315 473h-48l-114 161l30 18l108 -95l107 95l31 -18z" />
    <glyph glyph-name="ohungarumlaut" unicode="&#x151;" horiz-adv-x="555" 
d="M291 433c131 0 222 -87 222 -214c0 -135 -103 -232 -245 -232c-133 0 -226 90 -226 218c0 135 101 228 249 228zM275 373c-79 0 -131 -56 -131 -142c0 -103 62 -183 140 -183c75 0 127 62 127 151c0 100 -58 174 -136 174zM303 639l6 2l60 -18l2 -18l-137 -147l-38 4z
M440 639l6 2l60 -18l1 -18l-136 -147l-38 4z" />
    <glyph glyph-name="racute" unicode="&#x155;" horiz-adv-x="351" 
d="M73 422h95l-2 -111c35 55 44 68 61 84c26 26 53 38 83 38c20 0 48 -8 59 -17c5 -4 6 -7 6 -16c0 -7 -1 -13 -3 -18l-23 -52h-15c-12 10 -25 14 -43 14c-43 0 -68 -24 -123 -117v-227h-95v422zM283 642l6 2l75 -24v-18l-162 -136l-38 7z" />
    <glyph glyph-name="sacute" unicode="&#x15b;" horiz-adv-x="404" 
d="M344 350l-23 -11c-38 24 -69 34 -107 34c-47 0 -76 -20 -76 -52c0 -30 15 -40 97 -69c58 -20 78 -30 101 -48c23 -19 36 -47 36 -79c0 -82 -75 -136 -189 -136c-38 0 -99 9 -127 19c-6 2 -6 3 -8 11l-10 63l24 11c40 -28 83 -42 133 -42c52 0 84 22 84 57
c0 31 -17 44 -89 68c-62 21 -75 26 -97 41c-29 20 -45 51 -45 86c0 78 71 129 180 129c34 0 85 -7 101 -13c5 -2 6 -4 7 -11zM270 642l6 2l75 -24v-18l-162 -136l-38 7z" />
    <glyph glyph-name="scommaaccent" unicode="&#x219;" horiz-adv-x="404" 
d="M344 350l-23 -11c-38 24 -69 34 -107 34c-47 0 -76 -20 -76 -52c0 -30 15 -40 97 -69c58 -20 78 -30 101 -48c23 -19 36 -47 36 -79c0 -82 -75 -136 -189 -136c-38 0 -99 9 -127 19c-6 2 -6 3 -8 11l-10 63l24 11c40 -28 83 -42 133 -42c52 0 84 22 84 57
c0 31 -17 44 -89 68c-62 21 -75 26 -97 41c-29 20 -45 51 -45 86c0 78 71 129 180 129c34 0 85 -7 101 -13c5 -2 6 -4 7 -11zM128 -243v5c47 33 75 67 75 93c0 11 -6 18 -20 23c-25 9 -33 18 -33 38c0 24 20 42 46 42c38 0 67 -34 67 -78s-23 -83 -73 -124
c-17 -14 -33 -25 -36 -25c-2 0 -2 0 -5 4z" />
    <glyph glyph-name="tcaron" unicode="&#x165;" horiz-adv-x="341" 
d="M175 422h168v-59h-168v-202c0 -77 18 -105 66 -105c27 0 55 8 95 26l5 -2l6 -35c1 -2 1 -3 1 -4c0 -3 -4 -6 -20 -15c-46 -25 -93 -38 -132 -38c-45 0 -80 18 -97 50c-11 22 -17 61 -16 107v5l1 212h-55v24l124 127h25zM231 491v5c47 32 75 67 75 93c0 11 -6 18 -20 23
c-25 9 -33 18 -33 39c0 23 20 41 46 41c38 0 67 -34 67 -78s-23 -83 -73 -124c-18 -15 -33 -25 -37 -25c-1 0 -1 0 -4 4z" />
    <glyph glyph-name="uring" unicode="&#x16f;" horiz-adv-x="537" 
d="M464 422v-422h-93v56c-61 -46 -112 -67 -167 -67s-98 24 -118 67c-13 28 -16 53 -16 145v221h95v-220c0 -72 2 -87 10 -105c11 -20 33 -32 60 -32c37 0 86 20 134 55v302h95zM268 671c60 0 108 -44 108 -100s-47 -98 -109 -98c-59 0 -106 44 -106 98c0 56 48 100 107 100
zM269 627c-29 0 -51 -24 -51 -56c0 -33 22 -57 51 -57c30 0 50 22 50 56c0 33 -21 57 -50 57z" />
    <glyph glyph-name="uhungarumlaut" unicode="&#x171;" horiz-adv-x="537" 
d="M464 422v-422h-93v56c-61 -46 -112 -67 -167 -67s-98 24 -118 67c-13 28 -16 53 -16 145v221h95v-220c0 -72 2 -87 10 -105c11 -20 33 -32 60 -32c37 0 86 20 134 55v302h95zM283 639l6 2l60 -18l2 -18l-137 -147l-38 4zM420 639l6 2l60 -18l1 -18l-136 -147l-38 4z" />
    <glyph glyph-name="zacute" unicode="&#x17a;" horiz-adv-x="404" 
d="M36 422h363v-40l-263 -319h263l-14 -63h-376v43l264 319h-237v60zM282 642l6 2l75 -24v-18l-162 -136l-38 7z" />
    <glyph glyph-name="zdotaccent" unicode="&#x17c;" horiz-adv-x="404" 
d="M36 422h363v-40l-263 -319h263l-14 -63h-376v43l264 319h-237v60zM216 600c27 0 50 -23 50 -51c0 -27 -23 -49 -50 -49s-50 23 -50 50s23 50 50 50z" />
    <glyph glyph-name="tcommaaccent" unicode="&#x163;" horiz-adv-x="341" 
d="M175 422h168v-59h-168v-202c0 -77 18 -105 66 -105c27 0 55 8 95 26l5 -2l6 -35c1 -2 1 -3 1 -4c0 -3 -4 -6 -20 -15c-46 -25 -93 -38 -132 -38c-45 0 -80 18 -97 50c-11 22 -17 61 -16 107v5l1 212h-55v24l124 127h25zM130 -243v5c47 33 75 67 75 93c0 11 -6 18 -20 23
c-25 9 -33 18 -33 38c0 24 20 42 46 42c38 0 67 -34 67 -78s-23 -83 -73 -124c-17 -14 -33 -25 -36 -25c-2 0 -2 0 -5 4z" />
    <glyph glyph-name="tcommaaccent" unicode="&#x21b;" horiz-adv-x="341" 
d="M175 422h168v-59h-168v-202c0 -77 18 -105 66 -105c27 0 55 8 95 26l5 -2l6 -35c1 -2 1 -3 1 -4c0 -3 -4 -6 -20 -15c-46 -25 -93 -38 -132 -38c-45 0 -80 18 -97 50c-11 22 -17 61 -16 107v5l1 212h-55v24l124 127h25zM130 -243v5c47 33 75 67 75 93c0 11 -6 18 -20 23
c-25 9 -33 18 -33 38c0 24 20 42 46 42c38 0 67 -34 67 -78s-23 -83 -73 -124c-17 -14 -33 -25 -36 -25c-2 0 -2 0 -5 4z" />
    <glyph glyph-name="amacron" unicode="&#x101;" horiz-adv-x="497" 
d="M78 320l-3 50c1 7 3 12 6 14c39 29 113 49 179 49c56 0 96 -13 121 -39c20 -22 26 -47 26 -102v-10l-3 -170v-9c0 -37 3 -43 24 -43c17 0 36 5 62 17l4 -3v-39c0 -7 -2 -9 -10 -14c-27 -16 -79 -31 -107 -31c-27 0 -45 12 -54 38c-68 -25 -122 -38 -164 -38
c-68 0 -109 45 -109 120c0 57 21 85 75 102c49 15 106 26 190 36c-1 68 -1 71 -6 84c-9 23 -35 35 -78 35c-58 0 -93 -15 -125 -54zM314 79v119c-51 -8 -89 -15 -126 -25c-39 -11 -47 -20 -47 -53c0 -42 21 -61 66 -61c28 0 53 5 107 20zM117 588h262v-69h-262v69z" />
    <glyph glyph-name="emacron" unicode="&#x113;" horiz-adv-x="452" 
d="M419 226l-276 -30c5 -88 49 -136 125 -136c45 0 83 11 130 38h8l13 -38c1 -1 1 -3 1 -4c0 -3 -4 -7 -16 -15c-50 -33 -114 -53 -169 -53c-120 0 -193 81 -193 213c0 139 83 232 206 232c111 0 170 -71 171 -207zM142 249l173 22c-3 70 -31 107 -79 107
c-56 0 -91 -49 -94 -129zM106 588h262v-69h-262v69z" />
    <glyph glyph-name="imacron" unicode="&#x12b;" horiz-adv-x="241" 
d="M73 422h95v-422h-95v422zM12 588h217v-69h-217v69z" />
    <glyph glyph-name="kcommaaccent" unicode="&#x137;" horiz-adv-x="485" 
d="M73 691h94v-691h-94v691zM371 422h119l-215 -175l224 -247h-128l-198 228zM186 -243v5c47 33 75 67 75 93c0 11 -6 18 -20 23c-25 9 -33 18 -33 38c0 24 20 42 46 42c38 0 67 -34 67 -78s-23 -83 -73 -124c-17 -14 -33 -25 -36 -25c-2 0 -2 0 -5 4z" />
    <glyph glyph-name="lcommaaccent" unicode="&#x13c;" horiz-adv-x="241" 
d="M72 691h95v-691h-95v691zM46 -243v5c47 33 75 67 75 93c0 11 -6 18 -20 23c-25 9 -33 18 -33 38c0 24 20 42 46 42c38 0 67 -34 67 -78s-23 -83 -73 -124c-17 -14 -33 -25 -36 -25c-2 0 -2 0 -5 4z" />
    <glyph glyph-name="ncommaaccent" unicode="&#x146;" horiz-adv-x="537" 
d="M73 422h94v-59c76 53 119 70 175 70c49 0 87 -19 107 -54c15 -26 17 -42 17 -123v-256h-95v239c0 56 -1 69 -9 85c-10 21 -29 32 -56 32c-40 0 -87 -20 -138 -58v-298h-95v422zM195 -243v5c47 33 75 67 75 93c0 11 -6 18 -20 23c-25 9 -33 18 -33 38c0 24 20 42 46 42
c38 0 67 -34 67 -78s-23 -83 -73 -124c-17 -14 -33 -25 -36 -25c-2 0 -2 0 -5 4z" />
    <glyph glyph-name="omacron" unicode="&#x14d;" horiz-adv-x="555" 
d="M291 433c131 0 222 -87 222 -214c0 -135 -103 -232 -245 -232c-133 0 -226 90 -226 218c0 135 101 228 249 228zM275 373c-79 0 -131 -56 -131 -142c0 -103 62 -183 140 -183c75 0 127 62 127 151c0 100 -58 174 -136 174zM146 588h262v-69h-262v69z" />
    <glyph glyph-name="rcommaaccent" unicode="&#x157;" horiz-adv-x="351" 
d="M72 422h95l-2 -111c35 55 44 68 61 84c26 26 53 38 83 38c20 0 48 -8 59 -17c5 -4 6 -7 6 -16c0 -7 -1 -13 -3 -18l-23 -52h-15c-12 10 -25 14 -43 14c-43 0 -68 -24 -123 -117v-227h-95v422zM46 -243v5c47 33 75 67 75 93c0 11 -6 18 -20 23c-25 9 -33 18 -33 38
c0 24 20 42 46 42c38 0 67 -34 67 -78s-23 -83 -73 -124c-17 -14 -33 -25 -36 -25c-2 0 -2 0 -5 4z" />
    <glyph glyph-name="umacron" unicode="&#x16b;" horiz-adv-x="537" 
d="M464 422v-422h-93v56c-61 -46 -112 -67 -167 -67s-98 24 -118 67c-13 28 -16 53 -16 145v221h95v-220c0 -72 2 -87 10 -105c11 -20 33 -32 60 -32c37 0 86 20 134 55v302h95zM142 588h262v-69h-262v69z" />
    <glyph glyph-name="uogonek" unicode="&#x173;" horiz-adv-x="537" 
d="M70 422h95v-220c0 -72 2 -87 10 -105c11 -20 33 -32 60 -32c37 0 86 20 134 55v302h95v-422c-49 -51 -69 -83 -69 -113c0 -25 18 -39 51 -39c12 0 26 2 40 5h7l-1 -11c-2 -12 -4 -16 -12 -21c-14 -9 -46 -17 -69 -17c-50 0 -85 31 -85 74c0 39 26 76 87 122h-42v56
c-61 -46 -112 -67 -167 -67s-98 24 -118 67c-13 28 -16 53 -16 145v221z" />
    <glyph glyph-name="rcaron" unicode="&#x159;" horiz-adv-x="352" 
d="M73 422h95l-2 -111c34 54 44 68 61 84c26 26 53 38 83 38c21 0 48 -8 59 -17c5 -4 6 -7 6 -15c0 -7 -1 -14 -3 -19l-23 -52h-15c-12 10 -25 14 -43 14c-43 0 -72 -28 -123 -117v-227h-95v422zM222 473h-48l-114 161l30 18l108 -95l107 95l31 -18z" />
    <glyph glyph-name="scedilla" unicode="&#x15f;" horiz-adv-x="404" 
d="M252 -4l-33 -53v-9c39 -23 52 -38 52 -62c0 -48 -59 -100 -114 -100c-29 0 -64 18 -64 33c0 4 1 7 4 10l22 23h13c15 -17 26 -23 43 -23c19 0 35 13 35 30c0 15 -15 28 -61 52v22l51 70h-14c-38 0 -91 7 -124 17c-12 4 -12 4 -14 13l-10 63l24 11c40 -28 83 -42 133 -42
c52 0 84 22 84 57c0 31 -17 44 -89 68c-62 20 -75 26 -97 41c-29 20 -45 51 -45 86c0 78 71 129 181 129c33 0 84 -7 100 -13c5 -2 6 -4 7 -11l8 -58l-23 -11c-38 24 -68 34 -107 34c-47 0 -76 -20 -76 -52c0 -30 14 -40 98 -69c57 -20 78 -30 100 -48c23 -19 36 -47 36 -79
c0 -63 -44 -110 -120 -129z" />
    <glyph glyph-name="scedilla" unicode="&#xf6c2;" horiz-adv-x="404" 
d="M252 -4l-33 -53v-9c39 -23 52 -38 52 -62c0 -48 -59 -100 -114 -100c-29 0 -64 18 -64 33c0 4 1 7 4 10l22 23h13c15 -17 26 -23 43 -23c19 0 35 13 35 30c0 15 -15 28 -61 52v22l51 70h-14c-38 0 -91 7 -124 17c-12 4 -12 4 -14 13l-10 63l24 11c40 -28 83 -42 133 -42
c52 0 84 22 84 57c0 31 -17 44 -89 68c-62 20 -75 26 -97 41c-29 20 -45 51 -45 86c0 78 71 129 181 129c33 0 84 -7 100 -13c5 -2 6 -4 7 -11l8 -58l-23 -11c-38 24 -68 34 -107 34c-47 0 -76 -20 -76 -52c0 -30 14 -40 98 -69c57 -20 78 -30 100 -48c23 -19 36 -47 36 -79
c0 -63 -44 -110 -120 -129z" />
    <glyph glyph-name="gcommaaccent" unicode="&#x123;" horiz-adv-x="496" 
d="M485 421v-60h-98c27 -29 38 -59 38 -99c0 -62 -33 -112 -92 -140c-29 -14 -36 -16 -93 -33c-15 -4 -31 -9 -50 -14c-11 -4 -15 -8 -15 -15c0 -20 20 -25 129 -39c88 -11 115 -17 142 -36c29 -19 43 -46 43 -79c0 -95 -133 -174 -296 -174c-110 0 -178 39 -178 103
c0 54 46 90 165 132c-64 12 -88 31 -88 70c0 22 8 35 28 45c9 4 17 8 64 25c-41 8 -60 17 -82 36c-32 28 -50 69 -50 116c0 101 79 174 187 174c28 0 49 -3 82 -13zM255 144c53 15 78 49 78 105c0 78 -40 131 -98 131c-56 0 -91 -41 -91 -106c0 -77 41 -125 111 -130z
M237 -46c-87 -33 -129 -67 -129 -103s51 -62 123 -62c96 0 178 45 178 97c0 25 -17 41 -51 49s-80 15 -121 19zM315 672v-5c-48 -33 -75 -66 -75 -93c0 -11 6 -18 20 -22c25 -9 33 -18 33 -39c0 -23 -20 -41 -46 -41c-38 0 -67 34 -67 78s24 84 73 125c17 13 33 24 37 24
c1 0 1 0 5 -4z" />
    <glyph glyph-name="iogonek" unicode="&#x12f;" horiz-adv-x="241" 
d="M73 422h95v-422c-50 -52 -69 -84 -69 -113c0 -25 19 -39 51 -39c12 0 27 2 40 5h8l-2 -11c-2 -11 -4 -16 -12 -21c-13 -9 -46 -17 -69 -17c-50 0 -85 31 -85 74c0 39 29 79 87 122h-44v422zM121 683c31 0 56 -25 56 -56s-25 -56 -57 -56c-30 0 -55 26 -55 56
c0 31 25 56 56 56z" />
    <glyph glyph-name="Scommaaccent" unicode="&#x218;" horiz-adv-x="507" 
d="M432 613l8 -56l1 -5c0 -2 -2 -5 -4 -6l-17 -7c-1 -1 -4 -2 -5 -2c-2 0 -6 2 -14 8c-27 20 -89 38 -132 38c-75 0 -123 -37 -123 -96c0 -27 11 -50 31 -65c21 -16 37 -24 111 -56c79 -35 107 -51 134 -78c29 -28 46 -68 46 -109c0 -112 -102 -191 -247 -191
c-47 0 -136 13 -168 24c-12 4 -15 7 -16 15l-8 61c-1 3 -1 5 -1 7s2 4 4 6l15 8c5 2 5 2 6 2c2 0 2 0 12 -7c42 -27 117 -49 171 -49c79 0 134 41 134 102c0 24 -10 47 -26 63c-18 18 -41 31 -105 58c-83 35 -113 52 -142 78c-30 27 -47 67 -47 110c0 109 95 180 239 180
c43 0 109 -9 132 -19c7 -3 10 -6 11 -14zM168 -254v5c50 34 78 68 78 96c0 11 -7 18 -20 23c-26 9 -35 19 -35 40c0 24 21 42 48 42c39 0 69 -35 69 -79c0 -46 -25 -89 -77 -130c-18 -14 -33 -24 -36 -24c-2 0 -3 0 -6 4z" />
    <glyph glyph-name="Dcroat" unicode="&#x110;" horiz-adv-x="737" 
d="M91 301h-86v61h86v272c131 5 195 7 242 7c131 0 197 -16 255 -63c67 -54 104 -141 104 -244c0 -116 -48 -213 -134 -272c-64 -44 -142 -62 -272 -62h-195v301zM194 301v-239h113c93 0 157 18 199 56c47 43 74 119 74 208c0 98 -32 173 -91 214c-42 30 -86 40 -171 40
c-25 0 -66 -1 -124 -4v-214h194v-61h-194z" />
    <glyph glyph-name="dcroat" unicode="&#x111;" horiz-adv-x="556" 
d="M480 593h75v-56h-75v-537h-94v41c-52 -33 -105 -50 -157 -50c-113 0 -188 79 -188 197c0 139 112 242 264 242c27 0 46 -2 81 -9v116h-123v56h123v98h94v-98zM386 94v237c-33 19 -64 27 -106 27c-91 0 -141 -50 -141 -144c0 -93 54 -153 136 -153c36 0 71 10 111 33z" />
    <glyph glyph-name="middot" unicode="&#xe027;" horiz-adv-x="278" 
d="M138 303c35 0 63 -28 63 -63s-29 -63 -64 -63c-33 0 -62 29 -62 63c0 35 28 63 63 63z" />
    <glyph glyph-name="commaaccent" unicode="&#xf6c3;" horiz-adv-x="500" 
d="M176 -243v5c47 33 75 67 75 93c0 11 -6 18 -20 23c-25 9 -33 18 -33 38c0 24 20 42 46 42c38 0 67 -34 67 -78s-23 -83 -73 -124c-17 -14 -33 -25 -36 -25c-2 0 -2 0 -5 4z" />
    <glyph glyph-name="nbspace" unicode="&#xe028;" horiz-adv-x="241" 
 />
    <glyph glyph-name="lozenge" unicode="&#x25ca;" horiz-adv-x="634" 
d="M317 659l247 -342l-247 -341l-247 341zM317 575l-188 -258l188 -257l187 257z" />
    <glyph glyph-name="Delta" unicode="&#x394;" horiz-adv-x="634" 
d="M21 0l244 634h101l246 -634h-591zM155 87h321l-160 433z" />
    <glyph glyph-name="Delta" unicode="&#x2206;" horiz-adv-x="634" 
d="M21 0l244 634h101l246 -634h-591zM155 87h321l-160 433z" />
    <glyph glyph-name="notequal" unicode="&#x2260;" 
d="M277 404l50 106c5 10 7 12 11 12c2 0 2 0 11 -4l26 -13c9 -4 12 -7 12 -10c0 -2 0 -3 -5 -13l-37 -78h123c14 0 16 -2 16 -16v-27c0 -15 -1 -16 -18 -16h-149l-27 -58h178c14 0 16 -2 16 -16v-27c0 -14 -2 -16 -18 -16h-204l-47 -99c-4 -8 -7 -11 -10 -11
c-2 0 -8 2 -12 3l-26 13c-8 4 -12 7 -12 11c0 1 0 1 4 10l35 73h-118c-14 0 -16 2 -16 16v26c0 14 3 17 16 17h146l27 58h-173c-14 0 -16 2 -16 16v27c0 14 2 16 16 16h201z" />
    <glyph glyph-name="radical" unicode="&#x221a;" horiz-adv-x="480" 
d="M648 789v-87h-179l-183 -702h-121l-67 273h-84v87h161l27 -105c4 -19 11 -64 20 -136h8c23 143 29 173 64 305l94 365h260z" />
    <glyph glyph-name="lessequal" unicode="&#x2264;" 
d="M478 600v-79l-326 -148l326 -149v-78l-412 188v75zM478 115v-64h-412v64h412z" />
    <glyph glyph-name="greaterequal" unicode="&#x2265;" 
d="M66 146v78l326 149l-326 148v79l412 -191v-75zM66 51v64h412v-64h-412z" />
    <glyph glyph-name="summation" unicode="&#x2211;" horiz-adv-x="634" 
d="M578 713v-227h-84l-10 139h-356l239 -370l-239 -406h365l6 139h88v-226h-564v97l234 396l-234 361v97h555z" />
    <glyph glyph-name="partialdiff" unicode="&#x2202;" horiz-adv-x="476" 
d="M71 553l12 82c116 -15 186 -43 249 -101c77 -70 120 -174 120 -291c0 -152 -85 -252 -215 -252c-118 0 -214 97 -214 215c0 116 87 206 197 206c55 0 89 -15 129 -58c-40 111 -139 182 -278 199zM240 343c-69 0 -122 -61 -122 -141c0 -77 53 -140 119 -140
c67 0 119 63 119 144c0 79 -50 137 -116 137z" />
    <glyph glyph-name="Amacron.small" unicode="&#xe001;" horiz-adv-x="469" 
d="M213 466h74l185 -466h-106l-50 142h-177l-57 -142h-90zM297 196l-62 184l-74 -184h136zM118 640h264v-70h-264v70z" />
    <glyph glyph-name="Abreve.small" unicode="&#xe000;" horiz-adv-x="469" 
d="M213 466h74l185 -466h-106l-50 142h-177l-57 -142h-90zM297 196l-62 184l-74 -184h136zM116 680h43c9 -50 40 -76 91 -76s83 26 92 76h43v-11c0 -78 -56 -134 -135 -134c-78 0 -134 56 -134 135v10z" />
    <glyph glyph-name="Aogonek.small" unicode="&#xe002;" horiz-adv-x="469" 
d="M287 466l185 -466c-51 -53 -69 -83 -69 -113c0 -25 18 -39 50 -39c13 0 27 2 40 5h8l-1 -11c-2 -11 -5 -16 -12 -21c-14 -9 -46 -17 -69 -17c-50 0 -85 31 -85 74c0 39 26 76 87 122h-55l-50 142h-177l-57 -142h-90l221 466h74zM297 196l-62 184l-74 -184h136z" />
    <glyph glyph-name="Cacute.small" unicode="&#xe003;" horiz-adv-x="499" 
d="M476 440l-5 -37c-1 -7 -2 -8 -8 -11l-6 -3c-5 -2 -5 -2 -7 -2s-4 1 -14 5c-33 17 -79 27 -121 27c-103 0 -167 -70 -167 -182c0 -113 70 -190 171 -190c45 0 88 11 125 31c2 1 3 1 5 1c0 0 5 -1 6 -2l6 -3c5 -3 6 -5 6 -9c0 -1 0 -1 -1 -5l-7 -36c-1 -10 -3 -12 -13 -15
c-41 -12 -90 -19 -136 -19c-64 0 -124 14 -164 39c-64 39 -105 116 -105 196c0 83 43 160 115 205c51 31 111 46 183 46c47 0 107 -9 128 -19c7 -3 10 -9 9 -17zM360 696l7 1l75 -27v-18l-171 -132l-38 9z" />
    <glyph glyph-name="Ccaron.small" unicode="&#xe004;" horiz-adv-x="499" 
d="M476 440l-5 -37c-1 -7 -2 -8 -8 -11l-6 -3c-5 -2 -5 -2 -7 -2s-4 1 -14 5c-33 17 -79 27 -121 27c-103 0 -167 -70 -167 -182c0 -113 70 -190 171 -190c45 0 88 11 125 31c2 1 3 1 5 1c0 0 5 -1 6 -2l6 -3c5 -3 6 -5 6 -9c0 -1 0 -1 -1 -5l-7 -36c-1 -10 -3 -12 -13 -15
c-41 -12 -90 -19 -136 -19c-64 0 -124 14 -164 39c-64 39 -105 116 -105 196c0 83 43 160 115 205c51 31 111 46 183 46c47 0 107 -9 128 -19c7 -3 10 -9 9 -17zM311 527h-47l-121 161l31 19l113 -97l114 97l31 -19z" />
    <glyph glyph-name="Dcaron.small" unicode="&#xe005;" horiz-adv-x="571" 
d="M79 0v466c97 2 162 3 189 3c98 0 145 -11 188 -46c48 -40 75 -103 75 -178c0 -86 -35 -158 -98 -202c-48 -33 -104 -46 -202 -46c-27 0 -99 1 -152 3zM176 412v-357c13 -1 46 -1 70 -1c66 0 105 12 132 40c29 30 46 82 46 145c0 67 -20 120 -56 148
c-26 19 -58 27 -115 27c-18 0 -48 -1 -77 -2zM285 527h-48l-121 161l32 19l113 -97l113 97l31 -19z" />
    <glyph glyph-name="Dcroat.small" unicode="&#xe006;" horiz-adv-x="571" 
d="M79 269v197c97 2 162 3 188 3c98 0 145 -11 188 -46c48 -39 75 -103 75 -178c0 -86 -35 -158 -98 -202c-47 -33 -105 -46 -201 -46c-27 0 -100 1 -152 3v215h-71v54h71zM176 269h138v-54h-138v-161h69c66 0 105 12 132 40c29 30 46 82 46 145c0 68 -20 119 -57 148
c-26 20 -54 27 -107 27c-24 0 -52 -1 -83 -2v-143z" />
    <glyph glyph-name="Emacron.small" unicode="&#xe009;" horiz-adv-x="433" 
d="M79 466h328v-58h-231v-135h201v-56h-201v-157h236v-60h-333v466zM104 640h264v-70h-264v70z" />
    <glyph glyph-name="Edotaccent.small" unicode="&#xe008;" horiz-adv-x="433" 
d="M79 466h328v-58h-231v-135h201v-56h-201v-157h236v-60h-333v466zM235 651c27 0 50 -23 50 -51c0 -27 -23 -50 -51 -50c-27 0 -50 23 -50 50c0 28 23 51 51 51z" />
    <glyph glyph-name="Eogonek.small" unicode="&#xe00a;" horiz-adv-x="433" 
d="M412 60v-60c-52 -55 -69 -83 -69 -113c0 -25 18 -39 51 -39c12 0 26 2 40 5h8l-2 -11c-2 -11 -4 -16 -12 -21c-13 -9 -46 -17 -69 -17c-50 0 -85 31 -85 74c0 39 25 75 87 122h-282v466h328v-58h-231v-135h201v-56h-201v-157h236z" />
    <glyph glyph-name="Ecaron.small" unicode="&#xe007;" horiz-adv-x="433" 
d="M79 466h328v-58h-231v-135h201v-56h-201v-157h236v-60h-333v466zM259 527h-47l-121 161l31 19l113 -97l114 97l31 -19z" />
    <glyph glyph-name="Gcommaaccent.small" unicode="&#xe00c;" horiz-adv-x="556" 
d="M407 236h96v-222c-67 -15 -137 -24 -190 -24c-69 0 -127 14 -169 40c-63 39 -102 112 -102 192c0 151 120 254 296 254c42 0 111 -9 132 -18c8 -3 11 -7 11 -15l3 -40v-1c0 -4 -2 -7 -6 -9l-10 -6c-3 -1 -4 -2 -6 -2s-5 1 -16 7c-31 16 -79 27 -119 27
c-109 0 -178 -72 -178 -186c0 -115 70 -186 184 -186c26 0 47 3 74 10v179zM229 -243v5c47 33 75 67 75 93c0 11 -6 18 -20 23c-25 9 -33 18 -33 38c0 24 20 42 46 42c38 0 67 -34 67 -78s-23 -83 -73 -124c-17 -14 -33 -25 -36 -25c-2 0 -2 0 -5 4z" />
    <glyph glyph-name="Imacron.small" unicode="&#xe00e;" horiz-adv-x="254" 
d="M78 466h97v-466h-97v466zM7 640h239v-70h-239v70z" />
    <glyph glyph-name="Iogonek.small" unicode="&#xe00f;" horiz-adv-x="254" 
d="M175 466v-466c-42 -55 -56 -83 -56 -113c0 -25 17 -39 47 -39c13 0 27 2 40 5h8l-2 -11c-1 -11 -4 -16 -11 -21c-14 -9 -47 -17 -69 -17c-48 0 -82 31 -82 75c0 38 23 75 75 121h-46v466h96z" />
    <glyph glyph-name="Kcommaaccent.small" unicode="&#xe010;" horiz-adv-x="480" 
d="M79 466h97v-466h-97v466zM383 466h115l-217 -205l224 -261h-127l-198 249zM192 -243v5c47 33 75 67 75 93c0 11 -6 18 -20 23c-25 9 -33 18 -33 38c0 24 20 42 46 42c38 0 67 -34 67 -78s-23 -83 -73 -124c-17 -14 -33 -25 -36 -25c-2 0 -2 0 -5 4z" />
    <glyph glyph-name="Lacute.small" unicode="&#xe011;" horiz-adv-x="375" 
d="M79 466h97v-406h216v-60h-313v466zM200 696l7 1l75 -27v-18l-171 -132l-38 9z" />
    <glyph glyph-name="Lcommaaccent.small" unicode="&#xe013;" horiz-adv-x="375" 
d="M79 466h97v-406h216v-60h-313v466zM133 -243v5c47 33 75 67 75 93c0 11 -6 18 -20 23c-25 9 -33 18 -33 38c0 24 20 42 46 42c38 0 67 -34 67 -78s-23 -83 -73 -124c-17 -14 -33 -25 -36 -25c-2 0 -2 0 -5 4z" />
    <glyph glyph-name="Lcaron.small" unicode="&#xe012;" horiz-adv-x="375" 
d="M79 466h97v-406h216v-60h-313v466zM230 275v5c47 32 75 67 75 93c0 11 -6 18 -20 23c-25 9 -33 18 -33 39c0 23 20 41 46 41c38 0 67 -34 67 -78s-23 -83 -73 -125c-18 -14 -33 -24 -37 -24c-1 0 -1 0 -4 4z" />
    <glyph glyph-name="Nacute.small" unicode="&#xe014;" horiz-adv-x="571" 
d="M68 466h84l276 -339l-9 339h79l-1 -461l-65 -20l-295 363l9 -348h-79zM358 696l7 1l75 -27v-18l-171 -132l-38 9z" />
    <glyph glyph-name="Ncommaaccent.small" unicode="&#xe016;" horiz-adv-x="571" 
d="M68 466h84l276 -339l-9 339h79l-1 -461l-65 -20l-295 363l9 -348h-79zM211 -243v5c47 33 75 67 75 93c0 11 -6 18 -20 23c-25 9 -33 18 -33 38c0 24 20 42 46 42c38 0 67 -34 67 -78s-23 -83 -73 -124c-17 -14 -33 -25 -36 -25c-2 0 -2 0 -5 4z" />
    <glyph glyph-name="Ncaron.small" unicode="&#xe015;" horiz-adv-x="571" 
d="M68 466h84l276 -339l-9 339h79l-1 -461l-65 -20l-295 363l9 -348h-79zM308 527h-47l-121 161l31 19l113 -97l114 97l31 -19z" />
    <glyph glyph-name="Omacron.small" unicode="&#xe018;" horiz-adv-x="602" 
d="M313 476c145 0 248 -99 248 -237c0 -144 -113 -249 -268 -249c-144 0 -252 103 -252 239c0 142 116 247 272 247zM300 416c-90 0 -152 -71 -152 -176c0 -107 70 -190 160 -190c84 0 147 75 147 175c0 109 -66 191 -155 191zM169 640h264v-70h-264v70z" />
    <glyph glyph-name="Ohungarumlaut.small" unicode="&#xe017;" horiz-adv-x="602" 
d="M313 476c145 0 248 -99 248 -237c0 -144 -113 -249 -268 -249c-144 0 -252 103 -252 239c0 142 116 247 272 247zM300 416c-90 0 -152 -71 -152 -176c0 -107 70 -190 160 -190c84 0 147 75 147 175c0 109 -66 191 -155 191zM295 689l6 1l70 -18v-16l-142 -132l-35 5z
M435 689l6 1l70 -18v-16l-142 -132l-35 5z" />
    <glyph glyph-name="Racute.small" unicode="&#xe019;" horiz-adv-x="508" 
d="M79 0v466c17 0 29 0 35 1c7 0 26 0 49 1c28 1 51 1 63 1c79 0 119 -6 148 -22c42 -22 66 -61 66 -108c0 -59 -39 -102 -113 -126c74 -126 122 -172 180 -175l3 -5l-8 -27c-3 -9 -12 -12 -37 -12c-92 0 -135 36 -238 200c-15 -2 -24 -2 -37 -2h-17v-192h-94zM173 411v-164
c14 -1 20 -1 32 -1c90 0 130 27 130 88c0 57 -32 78 -121 78c-15 0 -25 0 -41 -1zM314 696l7 1l75 -27v-18l-171 -132l-38 9z" />
    <glyph glyph-name="Rcommaaccent.small" unicode="&#xe01b;" horiz-adv-x="508" 
d="M79 0v466c17 0 29 0 35 1c7 0 26 0 49 1c28 1 51 1 63 1c79 0 119 -6 148 -22c42 -22 66 -61 66 -108c0 -59 -39 -102 -113 -126c74 -126 122 -172 180 -175l3 -5l-8 -27c-3 -9 -12 -12 -37 -12c-92 0 -135 36 -238 200c-15 -2 -24 -2 -37 -2h-17v-192h-94zM173 411v-164
c14 -1 20 -1 32 -1c90 0 130 27 130 88c0 57 -32 78 -121 78c-15 0 -25 0 -41 -1zM193 -243v5c47 33 75 67 75 93c0 11 -6 18 -20 23c-25 9 -33 18 -33 38c0 24 20 42 46 42c38 0 67 -34 67 -78s-23 -83 -73 -124c-17 -14 -33 -25 -36 -25c-2 0 -2 0 -5 4z" />
    <glyph glyph-name="Rcaron.small" unicode="&#xe01a;" horiz-adv-x="508" 
d="M79 0v466c17 0 29 0 35 1c7 0 26 0 49 1c28 1 51 1 63 1c79 0 119 -6 148 -22c42 -22 66 -61 66 -108c0 -59 -39 -102 -113 -126c74 -126 122 -172 180 -175l3 -5l-8 -27c-3 -9 -12 -12 -37 -12c-92 0 -135 36 -238 200c-15 -2 -24 -2 -37 -2h-17v-192h-94zM173 411v-164
c14 -1 20 -1 32 -1c90 0 130 27 130 88c0 57 -32 78 -121 78c-15 0 -25 0 -41 -1zM259 527h-47l-121 161l31 19l113 -97l114 97l31 -19z" />
    <glyph glyph-name="Sacute.small" unicode="&#xe01c;" horiz-adv-x="399" 
d="M339 447l6 -41c1 -2 1 -3 1 -4c0 -2 -3 -7 -6 -8l-14 -6l-5 -1c-3 0 -7 2 -13 6c-22 14 -65 26 -97 26c-50 0 -81 -24 -81 -63c0 -35 12 -45 103 -83c60 -26 81 -37 102 -57c23 -21 36 -52 36 -83c0 -83 -82 -143 -197 -143c-37 0 -106 10 -130 18c-11 4 -14 7 -16 15
l-7 45v4c0 4 2 8 6 9l12 6c3 1 5 2 7 2s3 -1 11 -5c34 -20 87 -34 128 -34c54 0 91 28 91 69c0 36 -18 52 -96 83c-62 25 -84 37 -107 57s-37 50 -37 82c0 81 76 135 191 135c34 0 84 -7 101 -15c7 -2 9 -6 11 -14zM278 696l7 1l75 -27v-18l-171 -132l-38 9z" />
    <glyph glyph-name="Scedilla.small" unicode="&#xe01d;" horiz-adv-x="399" 
d="M215 -6l-31 -51v-9c40 -24 52 -39 52 -62c0 -49 -59 -101 -115 -101c-29 0 -64 18 -64 33c0 4 1 6 4 9l23 24h13c13 -16 26 -23 42 -23c20 0 35 13 35 30c0 15 -14 28 -60 52v23l52 72c-32 1 -81 7 -113 15c-19 5 -23 8 -25 18l-7 44v4c0 4 2 8 6 10l12 5c2 1 5 2 7 2
s3 -1 11 -5c33 -19 87 -33 128 -33c54 0 91 28 91 69c0 36 -18 51 -96 83c-62 25 -84 37 -107 56c-23 20 -37 51 -37 83c0 81 76 134 191 134c33 0 84 -7 101 -15c7 -2 9 -6 11 -14l6 -41l1 -4c0 -2 -3 -7 -6 -8l-14 -6l-5 -1c-3 0 -7 2 -13 6c-22 15 -65 26 -97 26
c-50 0 -81 -24 -81 -63c0 -35 12 -45 103 -83c59 -25 81 -37 102 -57c23 -21 36 -51 36 -82c0 -73 -59 -126 -156 -140z" />
    <glyph glyph-name="Tcommaaccent.small" unicode="&#xe020;" horiz-adv-x="412" 
d="M-23 466h457v-60h-178v-406h-97v406h-182v60zM132 -243v5c47 33 75 67 75 93c0 11 -6 18 -20 23c-25 9 -33 18 -33 38c0 24 20 42 46 42c38 0 67 -34 67 -78s-23 -83 -73 -124c-17 -14 -33 -25 -36 -25c-2 0 -2 0 -5 4z" />
    <glyph glyph-name="Tcaron.small" unicode="&#xe01f;" horiz-adv-x="412" 
d="M-23 466h457v-60h-178v-406h-97v406h-182v60zM229 527h-47l-121 161l32 19l113 -97l113 97l31 -19z" />
    <glyph glyph-name="Umacron.small" unicode="&#xe022;" horiz-adv-x="546" 
d="M71 466h97v-250c0 -91 2 -105 19 -125c17 -22 50 -34 91 -34c49 0 87 18 105 49c11 21 15 51 15 123v237h80l-3 -236c-1 -111 -14 -154 -55 -190c-38 -32 -95 -50 -164 -50c-73 0 -124 20 -155 62c-25 34 -30 61 -30 162v252zM141 640h264v-70h-264v70z" />
    <glyph glyph-name="Uring.small" unicode="&#xe024;" horiz-adv-x="546" 
d="M71 466h97v-250c0 -91 2 -105 19 -125c17 -22 50 -34 91 -34c49 0 87 18 105 49c11 21 15 51 15 123v237h80l-3 -236c-1 -111 -14 -154 -55 -190c-38 -32 -95 -50 -164 -50c-73 0 -124 20 -155 62c-25 34 -30 61 -30 162v252zM274 725c60 0 108 -45 108 -101
s-47 -99 -110 -99c-60 0 -107 44 -107 99c0 56 48 101 109 101zM275 681c-30 0 -52 -24 -52 -57s22 -58 52 -58c29 0 50 23 50 57c0 33 -21 58 -50 58z" />
    <glyph glyph-name="Uhungarumlaut.small" unicode="&#xe021;" horiz-adv-x="546" 
d="M71 466h97v-250c0 -91 2 -105 19 -125c17 -22 50 -34 91 -34c49 0 87 18 105 49c11 21 15 51 15 123v237h80l-3 -236c-1 -111 -14 -154 -55 -190c-38 -32 -95 -50 -164 -50c-73 0 -124 20 -155 62c-25 34 -30 61 -30 162v252zM267 689l6 1l70 -18v-16l-142 -132l-35 5z
M407 689l6 1l70 -18v-16l-142 -132l-35 5z" />
    <glyph glyph-name="Uogonek.small" unicode="&#xe023;" horiz-adv-x="546" 
d="M71 466h97v-250c0 -91 2 -105 19 -125c17 -22 50 -34 91 -34c49 0 87 18 105 49c11 21 15 51 15 123v237h80l-3 -236c0 -138 -24 -186 -109 -222c-33 -14 -68 -68 -68 -104c0 -30 18 -48 50 -48c13 0 27 2 40 5h8l-2 -11c-1 -11 -4 -16 -11 -21c-14 -9 -46 -17 -69 -17
c-50 0 -85 31 -85 74c0 35 21 67 72 107c-19 -2 -31 -3 -46 -3c-72 0 -123 21 -154 62c-25 34 -30 61 -30 162v252z" />
    <glyph glyph-name="Zacute.small" unicode="&#xe025;" horiz-adv-x="417" 
d="M31 466h382v-37l-281 -369h283l-11 -60h-400v39l282 369h-255v58zM288 696l7 1l75 -27v-18l-171 -132l-38 9z" />
    <glyph glyph-name="Zdotaccent.small" unicode="&#xe026;" horiz-adv-x="417" 
d="M31 466h382v-37l-281 -369h283l-11 -60h-400v39l282 369h-255v58zM214 651c27 0 50 -23 50 -51c0 -27 -23 -50 -51 -50c-27 0 -50 23 -50 50c0 28 23 51 51 51z" />
    <glyph glyph-name="Scommaaccent.small" unicode="&#xe01e;" horiz-adv-x="399" 
d="M339 447l6 -41c1 -2 1 -3 1 -4c0 -2 -3 -7 -6 -8l-14 -6l-5 -1c-3 0 -7 2 -13 6c-22 14 -65 26 -97 26c-50 0 -81 -24 -81 -63c0 -35 12 -45 103 -83c60 -26 81 -37 102 -57c23 -21 36 -52 36 -83c0 -83 -82 -143 -197 -143c-37 0 -106 10 -130 18c-11 4 -14 7 -16 15
l-7 45v4c0 4 2 8 6 9l12 6c3 1 5 2 7 2s3 -1 11 -5c34 -20 87 -34 128 -34c54 0 91 28 91 69c0 36 -18 52 -96 83c-62 25 -84 37 -107 57s-37 50 -37 82c0 81 76 135 191 135c34 0 84 -7 101 -15c7 -2 9 -6 11 -14zM119 -243v5c47 33 75 67 75 93c0 11 -6 18 -20 23
c-25 9 -33 18 -33 38c0 24 20 42 46 42c38 0 67 -34 67 -78s-23 -83 -73 -124c-17 -14 -33 -25 -36 -25c-2 0 -2 0 -5 4z" />
    <glyph glyph-name="Gbreve.small" unicode="&#xe00b;" horiz-adv-x="556" 
d="M407 236h96v-222c-67 -15 -137 -24 -190 -24c-69 0 -127 14 -169 40c-63 39 -102 112 -102 192c0 151 120 254 296 254c42 0 111 -9 132 -18c8 -3 11 -7 11 -15l3 -40v-1c0 -4 -2 -7 -6 -9l-10 -6c-3 -1 -4 -2 -6 -2s-5 1 -16 7c-31 16 -79 27 -119 27
c-109 0 -178 -72 -178 -186c0 -115 70 -186 184 -186c26 0 47 3 74 10v179zM156 680h43c9 -50 40 -76 91 -76s83 26 92 76h43v-11c0 -78 -56 -134 -135 -134c-78 0 -134 56 -134 135v10z" />
    <glyph glyph-name="Germandbls.small" unicode="&#xe00d;" horiz-adv-x="798" 
d="M339 447l6 -41c1 -2 1 -3 1 -4c0 -2 -3 -7 -6 -8l-14 -6l-5 -1c-3 0 -7 2 -13 6c-22 14 -65 26 -97 26c-50 0 -81 -24 -81 -63c0 -35 12 -45 103 -83c60 -26 81 -37 102 -57c23 -21 36 -52 36 -83c0 -83 -82 -143 -197 -143c-37 0 -106 10 -130 18c-11 4 -14 7 -16 15
l-7 45v4c0 4 2 8 6 9l12 6c3 1 5 2 7 2s3 -1 11 -5c34 -20 87 -34 128 -34c54 0 91 28 91 69c0 36 -18 52 -96 83c-62 25 -84 37 -107 57s-37 50 -37 82c0 81 76 135 191 135c34 0 84 -7 101 -15c7 -2 9 -6 11 -14zM738 447l7 -41v-4c0 -3 -3 -7 -6 -8l-13 -6l-6 -1
c-3 0 -6 2 -13 6c-22 14 -65 26 -97 26c-50 0 -81 -24 -81 -63c0 -35 12 -45 103 -83c60 -26 81 -37 102 -57c23 -21 36 -52 36 -83c0 -83 -82 -143 -197 -143c-37 0 -105 10 -130 18c-11 4 -14 7 -15 15l-8 45v4c0 4 2 8 6 9l12 6c3 1 5 2 7 2s3 -1 11 -5
c34 -20 87 -34 128 -34c54 0 91 28 91 69c0 36 -18 52 -96 83c-62 26 -84 37 -107 57s-37 50 -37 82c0 81 76 135 191 135c34 0 84 -7 101 -15c7 -2 10 -6 11 -14z" />
    </font>
</defs>
</svg>
