<?xml version="1.0" standalone="no"?>
<!DOCTYPE svg PUBLIC "-//W3C//DTD SVG 1.1//EN" "http://www.w3.org/Graphics/SVG/1.1/DTD/svg11.dtd" >
<svg xmlns="http://www.w3.org/2000/svg" xmlns:xlink="http://www.w3.org/1999/xlink" version="1.1">
<metadata>
Created by FontForge 20201107 at Sat Feb 17 00:23:44 2001
 By Unknown
(URW)++,Copyright 2000 by (URW)++ Design &#38; Development
</metadata>
<defs>
<font id="LegacySansItcTOT-Ultra" horiz-adv-x="567" >
  <font-face 
    font-family="Legacy Sans Itc T OT"
    font-weight="800"
    font-stretch="normal"
    units-per-em="1000"
    panose-1="2 0 0 0 0 0 0 0 0 0"
    ascent="800"
    descent="-200"
    x-height="422"
    cap-height="634"
    bbox="-212 -313 1141 916"
    underline-thickness="103"
    underline-position="-98"
    stemh="83"
    stemv="171"
    unicode-range="U+0020-FB02"
  />
<missing-glyph horiz-adv-x="197" 
 />
    <glyph glyph-name="fi" unicode="fi" horiz-adv-x="606" 
d="M238 422h109v-89h-109v-333h-171v333h-67v67l67 18c2 94 22 141 83 191s151 84 226 84c58 0 119 -24 141 -55c4 -6 6 -16 6 -36c0 -10 -2 -16 -8 -21l-50 -46h-39c-19 36 -46 50 -93 50c-39 0 -68 -9 -82 -26c-12 -14 -13 -21 -13 -82v-55zM384 422h172v-422h-172v422z
" />
    <glyph glyph-name="fl" unicode="fl" horiz-adv-x="604" 
d="M422 679h132v-679h-171v546c0 13 -2 18 -12 24c-18 10 -46 17 -73 17c-32 0 -47 -7 -55 -25c-5 -13 -5 -15 -5 -86v-54h108v-89h-108v-333h-171v333h-67v67l67 18c1 99 15 138 69 190c56 55 128 85 203 85c31 0 51 -3 83 -14z" />
    <glyph glyph-name=".notdef" horiz-adv-x="197" 
 />
    <glyph glyph-name="space" unicode=" " horiz-adv-x="197" 
 />
    <glyph glyph-name="space" unicode="&#xa0;" horiz-adv-x="197" 
 />
    <glyph glyph-name="exclam" unicode="!" horiz-adv-x="376" 
d="M89 645h197v-134l-62 -292h-73l-62 292v134zM187 182c54 0 97 -43 97 -97c0 -53 -43 -96 -98 -96c-51 0 -95 44 -95 96c0 54 43 97 96 97z" />
    <glyph glyph-name="quotedbl" unicode="&#x22;" 
d="M166 312l-30 222v100h126v-100l-30 -222h-66zM334 312l-30 222v100h126v-100l-30 -222h-66z" />
    <glyph glyph-name="numbersign" unicode="#" horiz-adv-x="621" 
d="M271 634h74l-47 -165h107l47 165h74l-47 -165h131l-27 -95h-130l-29 -101h131l-27 -95h-130l-50 -178h-75l50 178h-106l-50 -178h-75l51 178h-133l26 95h133l28 101h-132l27 95h132zM272 374l-29 -101h107l28 101h-106z" />
    <glyph glyph-name="dollar" unicode="$" 
d="M243 691h76v-69c59 -2 105 -10 160 -24c20 -6 21 -7 22 -22l3 -67c1 -5 1 -11 1 -13c0 -7 -2 -9 -11 -12l-33 -12c-2 -1 -8 -2 -9 -2c-3 0 -5 2 -15 11c-29 28 -76 48 -118 52v-147c107 -50 109 -51 134 -68c52 -36 77 -82 77 -138c0 -58 -30 -107 -85 -142
c-35 -21 -68 -31 -126 -39v-103h-76v101c-71 2 -109 7 -171 21c-27 7 -35 10 -38 15c-1 1 -1 3 -2 6v8l-3 77c0 12 0 14 1 16c2 3 5 5 13 7l27 10c11 3 11 3 12 3c3 0 3 0 19 -15c37 -34 97 -59 142 -58v160c-76 35 -114 55 -142 77c-40 32 -59 72 -59 122
c0 97 79 165 201 176v69zM251 408v132c-39 -5 -60 -25 -60 -59c0 -33 11 -47 60 -73zM311 228v-146c42 5 67 29 67 67c0 36 -17 56 -67 79z" />
    <glyph glyph-name="percent" unicode="%" horiz-adv-x="770" 
d="M202 645c100 0 164 -64 164 -164c0 -104 -70 -170 -178 -170c-106 0 -171 62 -171 163c0 107 69 171 185 171zM190 579c-31 0 -45 -30 -45 -96c0 -68 17 -106 48 -106s45 30 45 94c0 70 -17 108 -48 108zM590 323c100 0 164 -64 164 -164c0 -104 -69 -170 -179 -170
c-105 0 -170 62 -170 163c0 107 69 171 185 171zM578 257c-31 0 -45 -30 -45 -96c0 -68 17 -106 47 -106c32 0 46 30 46 94c0 70 -17 108 -48 108zM557 634h83l-435 -646h-82z" />
    <glyph glyph-name="ampersand" unicode="&#x26;" horiz-adv-x="700" 
d="M556 364h104c-12 -76 -49 -151 -100 -204c51 -67 81 -88 128 -88c4 0 7 0 13 1l4 -5l-8 -57c-1 -10 -3 -13 -11 -14c-17 -3 -49 -6 -74 -6c-69 0 -118 20 -161 67c-75 -50 -131 -69 -204 -69c-124 0 -208 69 -208 170c0 75 40 128 128 168c-47 43 -64 76 -64 125
c0 101 86 165 222 165c69 0 115 -14 148 -44c25 -24 40 -58 40 -95c0 -65 -37 -109 -111 -132c55 -35 79 -61 104 -107c21 31 40 78 50 125zM321 390h2c25 11 40 39 40 78c0 45 -20 73 -53 73c-35 0 -58 -25 -58 -63s18 -62 69 -88zM253 269c-25 -16 -39 -43 -39 -75
c0 -53 40 -89 100 -89c33 0 59 8 84 26c-43 77 -74 107 -145 138z" />
    <glyph glyph-name="quoteright" unicode="&#x2019;" horiz-adv-x="291" 
d="M30 335v6c69 43 102 83 102 124c0 23 -5 28 -40 40c-24 9 -38 30 -38 58c0 47 37 82 86 82c61 0 106 -54 106 -126s-39 -138 -113 -193c-28 -20 -51 -33 -59 -33c-3 0 -7 2 -10 6z" />
    <glyph glyph-name="parenleft" unicode="(" horiz-adv-x="410" 
d="M297 679l62 -60c-40 -59 -56 -86 -75 -129c-39 -87 -59 -178 -59 -269c0 -142 41 -263 134 -397l-62 -60c-58 43 -93 77 -128 123c-73 95 -113 213 -113 334c0 130 45 255 128 354c32 37 62 66 113 104z" />
    <glyph glyph-name="parenright" unicode=")" horiz-adv-x="410" 
d="M112 -236l-62 60c92 131 134 255 134 397s-41 264 -134 398l62 60c159 -118 241 -273 241 -458c0 -184 -82 -339 -241 -457z" />
    <glyph glyph-name="asterisk" unicode="*" 
d="M464 423h-47l-103 31l77 -74l24 -42l-82 -47l-24 40l-26 104l-25 -104l-25 -40l-81 47l24 42l77 74l-103 -31h-47v94h47l103 -31l-77 74l-24 42l81 47l25 -40l25 -104l26 104l24 40l82 -47l-24 -42l-77 -74l103 31h47v-94z" />
    <glyph glyph-name="plus" unicode="+" 
d="M235 366v155c0 18 1 19 29 19h40c29 0 29 0 29 -25v-149h154c18 0 18 0 19 -29v-40c-1 -29 -1 -29 -25 -29h-148v-154c0 -17 -2 -19 -29 -19h-40c-28 1 -29 2 -29 19v156h-155c-18 0 -19 2 -19 27v40c0 26 2 29 19 29h155z" />
    <glyph glyph-name="comma" unicode="," horiz-adv-x="289" 
d="M13 -147v7c76 50 109 88 109 127c0 22 -6 28 -43 43c-23 9 -36 29 -36 57c0 50 38 85 93 85c64 0 108 -53 108 -129c0 -65 -30 -119 -98 -178c-37 -32 -74 -54 -89 -54c-4 0 -8 2 -13 8z" />
    <glyph glyph-name="hyphen" unicode="-" horiz-adv-x="389" 
d="M64 301h289l-28 -123h-288z" />
    <glyph glyph-name="hyphen" unicode="&#xad;" horiz-adv-x="389" 
d="M64 301h289l-28 -123h-288z" />
    <glyph glyph-name="period" unicode="." horiz-adv-x="289" 
d="M145 182c53 0 96 -43 96 -97c0 -53 -44 -96 -98 -96c-51 0 -95 44 -95 96c0 54 43 97 97 97z" />
    <glyph glyph-name="slash" unicode="/" horiz-adv-x="424" 
d="M287 634h98l-305 -814h-97z" />
    <glyph glyph-name="zero" unicode="0" 
d="M286 645c69 0 128 -22 175 -65c63 -58 89 -136 89 -263c0 -137 -31 -218 -104 -275c-47 -37 -96 -53 -163 -53c-73 0 -128 20 -177 65c-63 58 -89 135 -89 264c0 135 32 218 103 274c47 36 99 53 166 53zM284 562c-62 0 -81 -57 -81 -246c0 -88 6 -155 16 -191
c10 -35 33 -54 64 -54c62 0 81 58 81 246c0 89 -5 154 -16 192c-9 33 -33 53 -64 53z" />
    <glyph glyph-name="one" unicode="1" 
d="M352 640h69v-640h-178v475l-121 -53h-33v84z" />
    <glyph glyph-name="two" unicode="2" 
d="M216 134h314l-28 -134h-478v56c37 40 72 78 108 116c107 113 135 146 158 185c18 32 26 59 26 88c0 54 -28 81 -82 81c-60 0 -104 -30 -131 -88c-3 -7 -5 -8 -15 -8h-22c-10 0 -11 1 -13 14l-11 61c-3 14 -3 14 -3 18c0 11 13 26 41 49c61 48 131 73 208 73
c131 0 214 -66 214 -170c0 -70 -36 -133 -118 -209c-33 -30 -75 -63 -168 -132z" />
    <glyph glyph-name="three" unicode="3" 
d="M157 275l-19 72c123 33 164 66 164 131c0 45 -23 68 -69 68c-47 0 -87 -24 -107 -67c-3 -6 -5 -7 -13 -7h-24c-10 0 -10 0 -13 12l-14 55c-2 8 -3 12 -3 14c0 11 25 31 65 51c58 29 114 42 177 42c111 0 183 -52 183 -131c0 -62 -40 -105 -128 -140
c106 -7 164 -65 164 -163c0 -133 -116 -223 -288 -223c-81 0 -146 19 -189 54c-11 10 -12 13 -12 49c0 22 0 22 12 30l38 24c13 8 13 8 25 8h21c8 0 9 0 12 -6c22 -49 57 -74 105 -74c57 0 90 38 90 105c0 72 -34 110 -98 110c-22 0 -44 -4 -79 -14z" />
    <glyph glyph-name="four" unicode="4" 
d="M345 634h121v-387h92v-114h-92v-133h-168v133h-289v87zM303 247v214l-170 -214h170z" />
    <glyph glyph-name="five" unicode="5" 
d="M165 634h343l-21 -134h-271l-13 -54c91 -20 137 -33 178 -54c84 -42 126 -102 126 -182c0 -129 -110 -221 -265 -221c-79 0 -146 22 -179 58c-13 14 -15 20 -15 48c0 20 1 21 12 28l39 26c11 7 14 8 25 8h23c11 0 12 0 15 -8c17 -48 53 -75 99 -75c51 0 85 36 85 90
c0 76 -53 107 -235 141l-25 37z" />
    <glyph glyph-name="six" unicode="6" 
d="M525 583l-14 -22c-26 1 -26 1 -39 1c-60 0 -114 -15 -161 -45c-53 -34 -83 -75 -101 -140c63 27 106 38 149 38c114 0 189 -77 189 -194c0 -141 -104 -232 -265 -232c-166 0 -256 92 -256 260c0 145 64 265 178 333c65 39 151 63 228 63c22 0 48 -2 55 -4
c6 -1 8 -3 12 -12zM206 289c-1 -6 -1 -6 -1 -14c-1 -4 -1 -21 -1 -26c0 -111 33 -178 89 -178c47 0 75 44 75 116c0 82 -29 126 -83 126c-25 0 -54 -9 -79 -24z" />
    <glyph glyph-name="seven" unicode="7" 
d="M49 634h485v-74l-314 -583l-135 26l286 473h-322v158z" />
    <glyph glyph-name="eight" unicode="8" 
d="M402 351c106 -52 143 -97 143 -173c0 -117 -103 -189 -270 -189c-164 0 -253 57 -253 163c0 74 39 123 126 159c-73 39 -101 81 -101 153c0 115 94 181 259 181c140 0 216 -52 216 -148c0 -65 -35 -107 -120 -146zM311 392c1 1 1 1 3 2c25 16 43 54 43 94
c0 51 -27 80 -74 80c-46 0 -74 -28 -74 -74s29 -74 102 -102zM238 268c-33 -24 -45 -50 -45 -96c0 -66 32 -104 88 -104c51 0 84 33 84 85c0 47 -24 69 -127 115z" />
    <glyph glyph-name="nine" unicode="9" 
d="M41 50l13 23c31 -2 38 -2 45 -2c131 0 240 84 256 198c-51 -27 -108 -42 -155 -42c-107 0 -181 78 -181 192c0 138 105 226 270 226c161 0 250 -92 250 -259c0 -234 -172 -397 -419 -397c-45 0 -48 1 -57 17zM361 352c1 24 1 24 1 35c0 115 -30 175 -88 175
c-48 0 -75 -41 -75 -114c0 -79 27 -119 80 -119c24 0 57 9 82 23z" />
    <glyph glyph-name="colon" unicode=":" horiz-adv-x="289" 
d="M145 182c53 0 96 -43 96 -97c0 -53 -44 -96 -98 -96c-51 0 -95 44 -95 96c0 54 43 97 97 97zM145 433c53 0 96 -44 96 -97s-44 -96 -98 -96c-51 0 -95 44 -95 96c0 53 43 97 97 97z" />
    <glyph glyph-name="semicolon" unicode=";" horiz-adv-x="289" 
d="M13 -147v7c76 50 109 88 109 127c0 22 -6 28 -43 43c-23 9 -36 29 -36 57c0 50 38 85 93 85c64 0 108 -53 108 -129c0 -65 -30 -119 -98 -178c-37 -32 -74 -54 -89 -54c-4 0 -8 2 -13 8zM138 433c54 0 97 -43 97 -97c0 -53 -43 -96 -98 -96c-51 0 -95 44 -95 96
c0 54 43 97 96 97z" />
    <glyph glyph-name="less" unicode="&#x3c;" 
d="M489 579v-122l-282 -136l281 -136l1 -121l-412 195v126z" />
    <glyph glyph-name="equal" unicode="=" 
d="M80 430h407c18 0 18 0 19 -32v-37c0 -20 -1 -21 -25 -21h-401c-18 0 -19 2 -19 21v37c0 29 2 32 19 32zM80 294h407c18 0 19 -1 19 -21v-37c-1 -32 -1 -32 -25 -32h-401c-18 0 -18 1 -19 32v36c0 18 3 22 19 22z" />
    <glyph glyph-name="greater" unicode="&#x3e;" 
d="M77 64v122l282 136l-282 136v121l412 -195v-126z" />
    <glyph glyph-name="question" unicode="?" horiz-adv-x="426" 
d="M111 488h-50l-21 52c-5 15 -6 18 -6 35c0 15 2 22 7 27c22 24 80 43 131 43c127 0 232 -91 232 -201c0 -45 -18 -81 -56 -111c-22 -17 -37 -25 -88 -49c-69 -32 -71 -33 -70 -65h-85c-8 43 -10 64 -10 87c0 50 12 64 104 116c61 35 74 47 74 70c0 24 -20 38 -54 38
c-38 0 -76 -15 -108 -42zM154 182c54 0 97 -43 97 -97c0 -53 -43 -96 -98 -96c-51 0 -95 44 -95 96c0 54 43 97 96 97z" />
    <glyph glyph-name="at" unicode="@" horiz-adv-x="826" 
d="M601 494l-38 -260c-3 -21 -3 -21 -3 -26c0 -6 3 -9 7 -9c9 0 34 14 50 29c35 32 59 98 59 158c0 116 -87 193 -216 193c-168 0 -308 -135 -308 -297c0 -145 101 -233 266 -233c61 0 100 6 157 24c4 1 7 2 9 2c9 0 18 -21 18 -40c0 -6 -4 -9 -23 -17
c-55 -23 -114 -34 -182 -34c-220 0 -363 116 -363 295c0 206 192 371 432 371c84 0 159 -20 215 -56c66 -43 111 -125 111 -202c0 -104 -69 -196 -175 -233c-34 -12 -80 -20 -112 -20c-40 0 -60 16 -60 49c0 18 3 40 11 71c-56 -77 -114 -120 -161 -120
c-51 0 -84 41 -84 106c0 73 42 146 112 194c46 31 90 46 166 56v4c1 6 5 8 15 8h90c4 0 8 -3 8 -7c0 -2 0 -4 -1 -6zM461 337l7 48l3 15l1 14c0 7 -3 9 -15 9c-63 0 -120 -81 -120 -171c0 -16 1 -21 5 -21c17 0 78 54 119 106z" />
    <glyph glyph-name="A" unicode="A" horiz-adv-x="689" 
d="M295 634h142l258 -634h-205l-59 160h-232l-65 -160h-145zM402 250l-79 221l-88 -221h167z" />
    <glyph glyph-name="B" unicode="B" horiz-adv-x="661" 
d="M67 634l141 2c107 1 107 1 123 1c100 0 142 -5 180 -23c44 -20 73 -65 73 -116c0 -63 -44 -109 -125 -132c54 -8 84 -21 114 -49c35 -31 53 -72 53 -118c0 -63 -34 -123 -88 -156c-51 -31 -119 -43 -242 -43h-229v634zM244 376h15c65 0 75 1 93 11c27 13 40 40 40 82
s-11 69 -34 80c-12 6 -33 9 -72 9h-23h-19v-182zM244 295v-209c95 0 95 0 117 5c49 12 70 43 70 104c0 53 -20 83 -63 95c-18 4 -25 5 -105 5h-19z" />
    <glyph glyph-name="C" unicode="C" horiz-adv-x="641" 
d="M637 601l-9 -73c-1 -12 -2 -12 -11 -17l-20 -10c-8 -4 -8 -4 -10 -4c-1 0 -3 1 -11 6c-53 31 -111 48 -171 48c-119 0 -175 -68 -175 -210c0 -167 73 -258 206 -258c54 0 116 19 151 47c7 6 9 7 11 7c1 0 3 -1 7 -3l17 -10c6 -5 7 -5 7 -8c0 -1 0 -1 -1 -8l-11 -72
c-2 -15 -3 -16 -11 -19c-50 -16 -130 -28 -197 -28c-103 0 -177 18 -238 57c-86 54 -137 150 -137 259c0 204 160 340 400 340c60 0 131 -10 188 -25c12 -4 15 -6 15 -11v-8z" />
    <glyph glyph-name="D" unicode="D" horiz-adv-x="791" 
d="M67 634l106 2c35 0 35 0 77 1l62 1c147 0 214 -7 270 -29c112 -44 174 -141 174 -272c0 -152 -86 -269 -229 -314c-53 -17 -115 -23 -236 -23h-224v634zM249 87h43c94 0 124 3 161 18c71 27 107 103 107 224c0 96 -26 161 -78 196c-32 21 -72 29 -142 29
c-19 0 -63 -1 -91 -3v-464z" />
    <glyph glyph-name="E" unicode="E" horiz-adv-x="598" 
d="M67 634h495v-95h-313v-160h280v-93h-280v-185h326v-101h-508v634z" />
    <glyph glyph-name="F" unicode="F" horiz-adv-x="570" 
d="M67 634h502v-95h-320v-162h269v-95h-269v-282h-182v634z" />
    <glyph glyph-name="G" unicode="G" horiz-adv-x="755" 
d="M517 311h182v-289c-92 -22 -188 -33 -283 -33c-112 0 -187 16 -250 55c-85 51 -132 141 -132 252c0 210 163 349 410 349c63 0 150 -11 202 -26c18 -5 19 -5 20 -24l4 -71l1 -7c0 -5 -1 -6 -10 -10l-27 -14c-6 -3 -6 -3 -8 -3s-4 1 -15 9c-43 31 -117 53 -182 53
c-132 0 -199 -79 -199 -234c0 -158 75 -239 221 -239c19 0 35 2 66 6v226z" />
    <glyph glyph-name="H" unicode="H" horiz-adv-x="760" 
d="M67 634h182v-246h262v246h182v-634h-182l3 279h-265v-279h-182v634z" />
    <glyph glyph-name="I" unicode="I" horiz-adv-x="317" 
d="M67 634h182v-634h-182v634z" />
    <glyph glyph-name="J" unicode="J" horiz-adv-x="337" 
d="M87 634h182v-495c0 -101 -5 -133 -27 -173c-52 -96 -155 -157 -264 -157c-52 0 -97 12 -109 28c-3 4 -4 11 -4 32s1 23 10 32l41 40l4 4c5 4 7 5 14 5h16c8 0 10 0 17 -4c17 -11 42 -17 63 -17c31 0 47 10 52 32c4 16 5 32 5 96v577z" />
    <glyph glyph-name="K" unicode="K" horiz-adv-x="692" 
d="M501 634h185l-251 -257l273 -377h-230l-224 329zM67 634h182v-634h-182v634z" />
    <glyph glyph-name="L" unicode="L" horiz-adv-x="536" 
d="M67 634h182v-533h298v-101h-480v634z" />
    <glyph glyph-name="M" unicode="M" horiz-adv-x="926" 
d="M97 634h160l209 -438l214 438h158l26 -634h-180l-10 415l-201 -403l-93 -8l-198 419v-423h-126z" />
    <glyph glyph-name="N" unicode="N" horiz-adv-x="749" 
d="M67 634h148l347 -389l-7 389h133l-7 -626l-118 -19l-379 421l10 -410h-132z" />
    <glyph glyph-name="O" unicode="O" horiz-adv-x="820" 
d="M431 646c217 0 356 -123 356 -315c0 -205 -159 -342 -398 -342c-220 0 -355 121 -355 316c0 211 151 341 397 341zM405 556c-110 0 -177 -83 -177 -219c0 -155 77 -258 193 -258c108 0 172 82 172 219c0 158 -73 258 -188 258z" />
    <glyph glyph-name="P" unicode="P" horiz-adv-x="622" 
d="M67 0v634c164 3 239 4 250 4c99 0 152 -8 193 -29c63 -32 100 -92 100 -161s-36 -134 -94 -169c-46 -28 -116 -43 -200 -43c-24 0 -39 1 -67 3v-239h-182zM249 551v-224c21 -1 28 -1 37 -1c95 0 128 29 128 111c0 49 -13 83 -37 99c-17 12 -41 16 -91 16
c-3 0 -7 0 -37 -1z" />
    <glyph glyph-name="Q" unicode="Q" horiz-adv-x="820" 
d="M766 -70l4 -56l1 -8c0 -6 -2 -8 -8 -11c-17 -5 -73 -12 -106 -12c-92 0 -166 26 -248 85c-36 27 -49 39 -76 72c-187 17 -299 131 -299 307c0 208 152 339 394 339c220 0 359 -121 359 -313c0 -156 -90 -264 -261 -312c23 -23 49 -41 85 -61c41 -22 70 -30 113 -30
c15 0 24 1 38 4zM405 556c-110 0 -177 -83 -177 -218c0 -151 77 -251 193 -251c108 0 172 78 172 211c0 157 -73 258 -188 258z" />
    <glyph glyph-name="R" unicode="R" horiz-adv-x="689" 
d="M67 0v634c186 3 279 4 279 4c95 0 144 -8 183 -30c54 -31 86 -85 86 -148c0 -84 -52 -143 -148 -169c75 -140 153 -222 221 -232l3 -5l-5 -42c-1 -10 -3 -13 -11 -15c-25 -7 -59 -12 -87 -12c-127 0 -203 71 -301 282h-7h-11h-14h-14v-267h-174zM241 551v-201
c28 -1 38 -1 49 -1c62 0 89 7 108 27c16 17 25 47 25 82c0 40 -15 69 -44 83c-16 8 -41 11 -93 11h-24c-3 0 -11 0 -21 -1z" />
    <glyph glyph-name="S" unicode="S" horiz-adv-x="563" 
d="M503 603l7 -58c1 -8 1 -12 1 -12c0 -4 -2 -6 -9 -11l-24 -14c-3 -1 -8 -3 -11 -3s-3 0 -20 11c-38 23 -94 37 -151 37c-61 0 -96 -23 -96 -64c0 -18 9 -32 30 -46c18 -12 20 -13 110 -49c75 -29 113 -50 143 -77c32 -30 52 -77 52 -123c0 -89 -60 -158 -163 -188
c-39 -11 -87 -17 -143 -17c-46 0 -117 7 -164 16c-29 5 -31 6 -32 24l-4 73c-1 10 -1 15 -1 16c0 4 2 6 10 10l25 13c3 2 10 4 12 4c1 0 4 -1 7 -4c46 -34 124 -59 186 -59c63 0 100 27 100 72c0 30 -12 47 -48 66c-20 12 -24 13 -137 58c-101 40 -146 93 -146 175
c0 123 101 192 283 192c55 0 116 -6 168 -17c12 -2 12 -2 15 -25z" />
    <glyph glyph-name="T" unicode="T" horiz-adv-x="624" 
d="M-17 634h658v-95h-238v-539h-182v539h-238v95z" />
    <glyph glyph-name="U" unicode="U" horiz-adv-x="738" 
d="M62 634h182v-354c0 -90 6 -116 33 -141c23 -22 61 -33 112 -33c66 0 111 16 132 49c19 27 24 62 24 168v311h137l-7 -343c-2 -71 -7 -107 -19 -141c-40 -106 -148 -161 -316 -161c-108 0 -187 28 -231 82c-36 44 -47 92 -47 205v358z" />
    <glyph glyph-name="V" unicode="V" horiz-adv-x="660" 
d="M-11 634h208l158 -443l183 443h149l-311 -634h-132z" />
    <glyph glyph-name="W" unicode="W" horiz-adv-x="1014" 
d="M-2 634h194l142 -424l153 424h111l138 -424l153 424h145l-275 -634h-128l-126 370l-146 -370h-129z" />
    <glyph glyph-name="X" unicode="X" horiz-adv-x="626" 
d="M13 634h210l119 -199l132 199h165l-233 -287l233 -347h-219l-126 223l-145 -223h-173l254 315z" />
    <glyph glyph-name="Y" unicode="Y" horiz-adv-x="610" 
d="M-24 634h222l137 -248l138 248h160l-244 -350v-284h-182v270z" />
    <glyph glyph-name="Z" unicode="Z" horiz-adv-x="605" 
d="M31 634h557v-72l-344 -461h350l-17 -101h-566v77l345 462h-325v95z" />
    <glyph glyph-name="bracketleft" unicode="[" horiz-adv-x="415" 
d="M90 673h276v-90h-119v-723h119v-90h-276v903z" />
    <glyph glyph-name="backslash" unicode="\" horiz-adv-x="424" 
d="M137 634l304 -814h-98l-304 814h98z" />
    <glyph glyph-name="bracketright" unicode="]" horiz-adv-x="415" 
d="M325 -230h-275v90h118v723h-118v90h275v-903z" />
    <glyph glyph-name="asciicircum" unicode="^" horiz-adv-x="476" 
d="M161 322h-154l134 317h195l133 -317h-154l-76 198z" />
    <glyph glyph-name="underscore" unicode="_" horiz-adv-x="476" 
d="M0 -47h476v-103h-476v103z" />
    <glyph glyph-name="quoteleft" unicode="&#x2018;" horiz-adv-x="291" 
d="M261 615v-6c-69 -43 -102 -83 -102 -125c0 -22 5 -27 40 -39c25 -9 39 -30 39 -58c0 -47 -37 -82 -86 -82c-62 0 -107 53 -107 126c0 72 39 138 113 193c28 20 51 33 59 33c4 0 6 -1 10 -6z" />
    <glyph glyph-name="a" unicode="a" horiz-adv-x="583" 
d="M587 101v-47c0 -19 0 -19 -20 -28c-51 -24 -113 -41 -152 -41c-40 0 -62 12 -73 39c-56 -21 -122 -35 -169 -35c-84 0 -129 43 -129 123c0 64 26 96 92 116c33 10 107 24 192 37v7v22c-1 35 -23 50 -71 50c-60 0 -99 -16 -132 -55l-41 14l-5 67v9c0 9 5 11 32 22
c64 23 121 32 198 32c73 0 116 -10 148 -36c30 -23 39 -50 39 -116l-1 -16l-2 -111l-1 -24v-13c0 -18 8 -27 24 -27c17 0 45 7 67 15zM331 99v93c-26 -2 -60 -7 -78 -11c-33 -7 -40 -15 -40 -44c0 -40 9 -50 48 -50c22 0 43 4 70 12z" />
    <glyph glyph-name="b" unicode="b" horiz-adv-x="598" 
d="M221 679v-279c63 21 120 33 161 33c113 0 188 -78 188 -196c0 -88 -43 -163 -117 -205c-48 -26 -125 -43 -203 -43c-51 0 -137 10 -191 21c-9 2 -9 2 -9 17v652h171zM221 317v-218c27 -12 47 -16 73 -16c65 0 87 32 87 125c0 86 -25 120 -87 120c-23 0 -48 -4 -73 -11z
" />
    <glyph glyph-name="c" unicode="c" horiz-adv-x="466" 
d="M402 291h-32c-22 22 -47 31 -90 31c-51 0 -72 -25 -72 -84c0 -40 11 -81 29 -104c17 -23 44 -34 82 -34c39 0 72 10 111 35l12 -6v-51c-1 -24 -1 -24 -24 -38c-51 -33 -115 -51 -181 -51c-127 0 -209 75 -209 193c0 143 120 251 277 251c50 0 101 -11 132 -29
c10 -5 13 -11 13 -25c0 -25 0 -25 -10 -38z" />
    <glyph glyph-name="d" unicode="d" horiz-adv-x="585" 
d="M364 679h170v-679h-169v38c-51 -32 -106 -49 -158 -49c-108 0 -179 75 -179 188c0 77 29 139 86 185c51 41 119 65 182 65c23 0 39 -2 68 -8v260zM364 107v173c-1 24 -1 24 -8 29c-13 10 -42 17 -66 17c-57 0 -82 -31 -82 -98c0 -83 39 -134 100 -134c18 0 34 4 56 13z
" />
    <glyph glyph-name="e" unicode="e" horiz-adv-x="525" 
d="M502 197l-290 -17c8 -58 42 -87 102 -87c39 0 98 16 136 36l8 -2l24 -56c1 -4 3 -10 3 -13c0 -4 -5 -7 -25 -17c-77 -35 -147 -52 -220 -52c-132 0 -212 78 -212 207c0 142 103 238 257 238c102 0 175 -47 204 -130c9 -28 13 -59 13 -107zM205 253l128 11
c-2 60 -23 90 -64 90c-42 0 -62 -31 -64 -101z" />
    <glyph glyph-name="f" unicode="f" horiz-adv-x="350" 
d="M238 422h132v-89h-132v-333h-171v333h-67v67l67 18c1 98 16 138 70 190c55 54 128 85 202 85c43 0 86 -11 117 -30c9 -6 12 -12 12 -26c0 -17 0 -17 -7 -28l-32 -55h-39c-27 24 -53 33 -95 33c-30 0 -45 -7 -52 -25c-5 -13 -5 -16 -5 -86v-54z" />
    <glyph glyph-name="g" unicode="g" horiz-adv-x="568" 
d="M573 422v-86h-88c20 -31 26 -50 26 -76c0 -47 -27 -90 -73 -116c-42 -25 -75 -34 -187 -55c-23 -5 -30 -8 -30 -16c0 -13 18 -18 102 -24c114 -9 139 -14 173 -31c42 -22 64 -56 64 -98c0 -111 -143 -190 -344 -190c-135 0 -209 36 -209 102c0 53 41 86 144 117
c-54 20 -75 42 -75 78c0 38 29 61 112 89c-89 14 -141 67 -141 144c0 107 89 173 233 173c32 0 54 -2 104 -11h189zM285 161c42 12 59 38 59 86c0 69 -27 112 -71 112c-38 0 -61 -34 -61 -91c0 -62 28 -102 73 -107zM238 -71c-54 -26 -69 -40 -69 -64c0 -30 46 -50 114 -50
c71 0 123 27 123 64c0 26 -14 33 -93 41c-43 5 -45 5 -75 9z" />
    <glyph glyph-name="h" unicode="h" horiz-adv-x="583" 
d="M50 679h171v-297c72 35 129 51 178 51c51 0 98 -27 119 -68c14 -27 15 -40 15 -154v-211h-172v217c0 61 0 64 -7 76c-8 14 -24 23 -43 23c-22 0 -58 -12 -90 -31v-285h-171v679z" />
    <glyph glyph-name="i" unicode="i" horiz-adv-x="272" 
d="M50 422h172v-422h-172v422zM136 683c51 0 92 -41 92 -92c0 -50 -41 -91 -93 -91c-48 0 -90 42 -90 91c0 51 41 92 91 92z" />
    <glyph glyph-name="j" unicode="j" horiz-adv-x="272" 
d="M54 422h171v-422c0 -112 -11 -147 -65 -199c-51 -50 -101 -71 -169 -71c-40 0 -80 7 -101 18c-9 5 -10 9 -10 25c0 25 0 25 12 37l49 49h27c17 -15 36 -23 52 -23s28 8 32 23c1 7 1 7 2 59v504zM136 683c51 0 92 -41 92 -92c0 -50 -41 -91 -93 -91c-48 0 -90 42 -90 91
c0 51 41 92 91 92z" />
    <glyph glyph-name="k" unicode="k" horiz-adv-x="580" 
d="M401 422h178l-180 -160l192 -262h-220l-148 226zM50 679h171v-679h-171v679z" />
    <glyph glyph-name="l" unicode="l" horiz-adv-x="272" 
d="M50 679h171v-679h-171v679z" />
    <glyph glyph-name="m" unicode="m" horiz-adv-x="894" 
d="M50 422h172l-2 -49c78 42 132 60 185 60c55 0 89 -21 108 -64c70 42 136 64 190 64c56 0 101 -22 123 -61c16 -28 18 -45 18 -148v-224h-172v229c0 33 -1 46 -5 58c-6 18 -22 28 -46 28c-25 0 -51 -8 -88 -26v-289h-172v232c0 43 -1 52 -8 63c-8 13 -22 20 -42 20
c-23 0 -49 -7 -89 -26v-289h-172v422z" />
    <glyph glyph-name="n" unicode="n" horiz-adv-x="585" 
d="M50 422h172l-2 -50c70 40 134 61 187 61c54 0 98 -29 116 -76c10 -27 12 -46 12 -139v-218h-172v214c0 38 -2 58 -5 68c-6 16 -20 25 -42 25c-26 0 -61 -12 -94 -32v-275h-172v422z" />
    <glyph glyph-name="o" unicode="o" horiz-adv-x="600" 
d="M319 434c155 0 253 -86 253 -222c0 -139 -109 -223 -289 -223c-73 0 -127 13 -169 40c-55 36 -87 101 -87 177c0 137 117 228 292 228zM292 351c-49 0 -76 -38 -76 -106c0 -105 37 -173 94 -173c50 0 73 35 73 111c0 97 -38 168 -91 168z" />
    <glyph glyph-name="p" unicode="p" horiz-adv-x="591" 
d="M50 422h169v-38c59 34 108 49 159 49c114 0 185 -76 185 -198c0 -147 -103 -240 -268 -240c-24 0 -43 1 -74 5v-253h-171v675zM221 303v-191c31 -11 57 -16 85 -16c56 0 77 26 77 96c0 86 -30 130 -90 130c-24 0 -49 -6 -72 -19z" />
    <glyph glyph-name="q" unicode="q" horiz-adv-x="585" 
d="M535 -253h-171v273c-71 -23 -111 -31 -157 -31c-107 0 -179 76 -179 189c0 74 31 143 85 187c57 47 123 68 217 68c56 0 143 -11 191 -25c14 -4 14 -4 14 -17v-644zM364 108v221c-18 6 -41 10 -69 10c-55 0 -78 -34 -78 -116c0 -85 27 -123 87 -123c19 0 43 3 60 8z" />
    <glyph glyph-name="r" unicode="r" horiz-adv-x="419" 
d="M50 422h172l-3 -97c62 85 94 108 147 108c23 0 47 -6 61 -15c6 -4 8 -10 8 -21c0 -13 0 -15 -7 -31l-35 -90h-23c-11 14 -27 21 -48 21c-36 0 -70 -31 -100 -92v-205h-172v422z" />
    <glyph glyph-name="s" unicode="s" horiz-adv-x="467" 
d="M418 333l-43 -23c-29 23 -73 35 -124 35c-37 0 -58 -11 -58 -30c0 -9 6 -16 16 -21c12 -5 12 -5 67 -19c60 -16 89 -26 110 -39c39 -24 56 -54 56 -96c0 -96 -88 -152 -241 -152c-52 0 -107 5 -146 14c-16 4 -16 4 -19 23l-9 69l46 25c42 -30 83 -42 140 -42
c43 0 65 11 65 33c0 8 -5 16 -14 20c-9 5 -9 5 -61 19c-61 16 -89 25 -107 36c-38 23 -59 57 -59 100c0 92 91 149 238 149c37 0 83 -5 117 -14c17 -4 17 -4 19 -23z" />
    <glyph glyph-name="t" unicode="t" horiz-adv-x="395" 
d="M238 422h161v-89h-164l-4 -139v-13c0 -68 15 -87 70 -87c27 0 42 3 82 15l7 -2l10 -53l1 -11c0 -8 -9 -13 -46 -25c-51 -18 -112 -29 -155 -29c-53 0 -93 16 -115 46c-17 22 -23 51 -23 110v36l4 152h-66v44l185 162h57z" />
    <glyph glyph-name="u" unicode="u" horiz-adv-x="585" 
d="M362 422h172v-422h-165l2 50c-80 -42 -139 -61 -188 -61c-52 0 -94 24 -115 66c-14 29 -19 64 -19 142v225h172v-230c0 -60 11 -77 51 -77c25 0 61 11 90 27v280z" />
    <glyph glyph-name="v" unicode="v" horiz-adv-x="490" 
d="M-14 422h191l91 -250l97 250h142l-206 -422h-140z" />
    <glyph glyph-name="w" unicode="w" horiz-adv-x="755" 
d="M-7 422h183l81 -247l82 247h124l75 -247l90 247h138l-203 -422h-124l-73 234l-84 -234h-125z" />
    <glyph glyph-name="x" unicode="x" horiz-adv-x="526" 
d="M9 422h201l81 -109l82 109h164l-179 -194l178 -228h-201l-86 122l-92 -122h-167l191 206z" />
    <glyph glyph-name="y" unicode="y" horiz-adv-x="486" 
d="M-9 422h193l76 -248l105 248h141l-357 -692l-133 25l150 237z" />
    <glyph glyph-name="z" unicode="z" horiz-adv-x="464" 
d="M36 422h417v-67l-227 -269h227l-14 -86h-428v60l232 276h-207v86z" />
    <glyph glyph-name="braceleft" unicode="{" horiz-adv-x="404" 
d="M369 674v-86c-46 -1 -50 -2 -64 -7c-24 -9 -33 -30 -33 -79l1 -85c0 -90 -7 -122 -32 -152c-17 -19 -32 -30 -64 -41c35 -12 55 -25 71 -50c19 -28 25 -60 25 -143v-86c0 -47 9 -69 33 -77c14 -5 20 -6 63 -8v-85c-32 -3 -51 -4 -73 -4c-91 0 -147 30 -166 89
c-11 35 -14 74 -14 202v26c2 75 -19 95 -97 94v85c78 -1 99 19 97 95v23c0 132 2 168 14 203c19 60 74 89 167 89c21 0 39 -1 72 -3z" />
    <glyph glyph-name="bar" unicode="|" horiz-adv-x="475" 
d="M152 634h172v-793h-172v793z" />
    <glyph glyph-name="braceright" unicode="}" horiz-adv-x="404" 
d="M36 -225v85c43 2 50 3 64 8c24 8 33 29 33 80l-1 85c0 89 7 121 32 150c17 20 32 30 64 41c-36 13 -55 26 -71 51c-19 28 -25 60 -25 142l1 87c0 47 -9 68 -33 77c-14 5 -18 6 -64 7v86c33 2 51 3 73 3c110 0 163 -39 175 -130c4 -24 5 -94 5 -184c-2 -77 18 -97 97 -96
v-85c-79 1 -99 -19 -97 -96c1 -112 -1 -170 -7 -198c-15 -80 -68 -116 -174 -116c-23 0 -40 1 -72 3z" />
    <glyph glyph-name="asciitilde" unicode="~" horiz-adv-x="634" 
d="M171 512l-84 71c39 99 83 141 148 141c26 0 38 -4 140 -43c12 -5 22 -7 31 -7c23 0 38 14 59 53l84 -71c-41 -102 -82 -141 -149 -141c-27 0 -42 4 -107 30c-37 15 -51 19 -65 19c-21 0 -37 -15 -57 -52z" />
    <glyph glyph-name="exclamdown" unicode="&#xa1;" horiz-adv-x="376" 
d="M286 -223h-197v134l62 292h73l62 -292v-134zM189 433c51 0 95 -44 95 -96c0 -54 -43 -97 -97 -97c-53 0 -96 43 -96 97c0 53 44 96 98 96z" />
    <glyph glyph-name="cent" unicode="&#xa2;" 
d="M293 611h76v-78c45 -3 73 -9 97 -21c21 -10 23 -13 23 -30c0 -22 0 -22 -10 -35l-36 -49h-30c-12 17 -26 26 -46 32v-212c38 2 67 12 103 37l11 -6v-52c0 -18 0 -18 -4 -22c-18 -17 -65 -40 -108 -52v-113h-76v101c-133 1 -211 70 -211 185c0 83 42 157 112 197
c29 17 57 27 99 36v82zM299 219v216c-46 -17 -60 -42 -60 -108s14 -91 60 -108z" />
    <glyph glyph-name="sterling" unicode="&#xa3;" 
d="M286 343h143v-96h-123c2 -14 3 -21 3 -30c0 -41 -19 -77 -53 -102c21 6 32 8 49 8c21 0 31 -1 87 -8c36 -5 55 -7 72 -7c33 0 56 7 75 24l26 -14v-58c0 -18 -2 -23 -12 -31c-34 -26 -84 -40 -146 -40c-27 0 -53 2 -106 9c-54 6 -75 8 -100 8c-37 0 -58 -4 -88 -17
c-3 -2 -6 -3 -7 -3c-4 0 -6 2 -13 14l-16 29c-5 8 -6 11 -6 14s4 7 13 13c54 36 77 68 77 104c0 18 -5 44 -17 87h-103v96h75c-11 42 -15 67 -15 92c0 124 119 211 288 211c99 0 161 -43 161 -111c0 -26 -8 -38 -31 -46l-72 -28l-36 16c-1 47 -22 66 -72 66s-77 -25 -77 -72
c0 -24 8 -64 24 -128z" />
    <glyph glyph-name="fraction" unicode="&#x2044;" horiz-adv-x="94" 
d="M223 634h83l-436 -646h-82z" />
    <glyph glyph-name="fraction" unicode="&#x2215;" horiz-adv-x="94" 
d="M223 634h83l-436 -646h-82z" />
    <glyph glyph-name="yen" unicode="&#xa5;" 
d="M-20 634h205l127 -250l132 250h149l-169 -250h115v-64h-158l-24 -36v-26h182v-65h-182v-193h-160v193h-163v65h163v12l-30 50h-133v64h95z" />
    <glyph glyph-name="florin" unicode="&#x192;" 
d="M331 342h113l-17 -84h-108l-38 -172c-26 -118 -59 -174 -130 -219c-42 -27 -100 -45 -143 -45c-35 0 -78 13 -89 27c-3 4 -5 11 -5 22c0 16 1 17 10 27l44 47h39c14 -16 28 -24 41 -24c18 0 20 5 35 73l57 264h-81l15 68l84 16c32 139 49 170 115 222
c70 53 141 81 207 81c75 0 133 -30 133 -69c0 -7 -2 -19 -8 -42c-3 -12 -6 -15 -20 -21l-59 -26h-33c-6 28 -24 39 -65 39c-47 0 -60 -16 -76 -89z" />
    <glyph glyph-name="section" unicode="&#xa7;" 
d="M420 490h-38c-8 32 -35 48 -82 48c-42 0 -71 -21 -71 -53c0 -19 9 -34 29 -49c16 -13 22 -16 106 -63c114 -64 153 -110 153 -179c0 -61 -34 -108 -103 -142c41 -33 59 -68 59 -115c0 -111 -115 -201 -254 -201c-58 0 -115 18 -136 42c-10 12 -11 16 -11 41
c0 16 0 17 10 28l42 45h42c14 -32 47 -49 97 -49c48 0 75 18 75 52c0 20 -8 33 -30 50c-14 10 -17 11 -92 55c-119 69 -155 110 -155 180c0 63 32 111 95 143c-51 42 -68 73 -68 121c0 112 112 201 254 201c61 0 118 -21 133 -48c4 -7 5 -15 5 -34s0 -19 -11 -29zM224 278
c-23 -13 -34 -28 -34 -48c0 -34 17 -48 156 -129c3 -2 6 -4 10 -6c19 14 27 27 27 47c0 39 -17 54 -150 131c-3 1 -6 3 -9 5z" />
    <glyph glyph-name="currency" unicode="&#xa4;" 
d="M170 156l-69 -68c-8 -9 -9 -9 -11 -9c-3 0 -7 2 -11 6l-34 34c-4 4 -6 8 -6 11c0 2 3 7 8 12l69 68c-25 41 -35 74 -35 114c0 41 10 74 35 113l-69 69c-5 6 -8 10 -8 12c0 3 3 7 6 11l34 33c4 5 8 7 11 7s3 0 9 -7l71 -71c39 25 73 35 113 35c41 0 76 -11 114 -35l68 69
c9 9 9 9 12 9c2 0 6 -2 11 -7l33 -34c5 -4 7 -7 7 -10c0 -2 -2 -6 -7 -11l-70 -70c23 -38 34 -73 34 -113c0 -39 -10 -72 -34 -113l69 -69c5 -6 8 -10 8 -13c0 -2 -1 -4 -6 -9l-34 -34c-4 -4 -7 -6 -11 -6c-2 0 -6 2 -12 8l-68 68c-39 -23 -75 -34 -114 -34
c-38 0 -74 11 -113 34zM284 415c-51 0 -92 -40 -92 -90c0 -51 41 -92 91 -92s91 41 91 91c0 49 -41 91 -90 91z" />
    <glyph glyph-name="quotesingle" unicode="'" horiz-adv-x="376" 
d="M155 312l-30 222v100h126v-100l-30 -222h-66z" />
    <glyph glyph-name="quotedblleft" unicode="&#x201c;" horiz-adv-x="509" 
d="M480 603v-5c-68 -42 -102 -84 -102 -125c0 -18 7 -28 26 -35c40 -15 52 -29 52 -63c0 -47 -37 -82 -86 -82c-61 0 -106 53 -106 126c0 72 39 139 113 193c26 19 51 33 58 33c4 0 8 -2 11 -5zM261 603v-5c-68 -43 -102 -84 -102 -125c0 -18 7 -28 26 -35
c41 -15 53 -29 53 -63c0 -47 -37 -82 -86 -82c-62 0 -107 54 -107 127c0 71 39 137 113 192c26 19 51 33 59 33c4 0 7 -2 10 -5z" />
    <glyph glyph-name="guillemotleft" unicode="&#xab;" horiz-adv-x="532" 
d="M16 236l205 205l69 -43l-107 -162l107 -163l-69 -42zM243 236l205 205l69 -43l-106 -162l106 -163l-69 -42z" />
    <glyph glyph-name="guilsinglleft" unicode="&#x2039;" horiz-adv-x="305" 
d="M16 236l205 205l69 -43l-107 -162l107 -163l-69 -42z" />
    <glyph glyph-name="guilsinglright" unicode="&#x203a;" horiz-adv-x="305" 
d="M290 236l-205 -205l-69 42l106 163l-106 162l69 43z" />
    <glyph glyph-name="endash" unicode="&#x2013;" horiz-adv-x="572" 
d="M37 277h499v-86h-499v86z" />
    <glyph glyph-name="dagger" unicode="&#x2020;" 
d="M213 634h139v-83l-14 -151l113 13h75v-111h-75l-113 13l14 -153l-12 -434h-115l-12 434l14 153l-111 -13h-76v111h70l117 -13l-14 151v83z" />
    <glyph glyph-name="daggerdbl" unicode="&#x2021;" 
d="M353 634v-77l-15 -139l112 11h76v-117h-76l-112 11l15 -106l-15 -115l112 11h76v-117h-76l-112 11l15 -140v-125h-139v125l15 140l-112 -11h-76v117h76l112 -11l-15 115l15 106l-112 -11h-76v117h76l112 -11l-15 139v77h139z" />
    <glyph glyph-name="periodcentered" unicode="&#xb7;" horiz-adv-x="289" 
d="M145 286c53 0 96 -44 96 -97s-44 -96 -98 -96c-51 0 -95 44 -95 96c0 53 43 97 97 97z" />
    <glyph glyph-name="periodcentered" unicode="&#x2219;" horiz-adv-x="289" 
d="M145 286c53 0 96 -44 96 -97s-44 -96 -98 -96c-51 0 -95 44 -95 96c0 53 43 97 97 97z" />
    <glyph glyph-name="paragraph" unicode="&#xb6;" horiz-adv-x="679" 
d="M490 686h60v-110c75 1 109 14 123 44h16l14 -39c3 -8 4 -11 4 -16c0 -27 -37 -36 -157 -36v-556c0 -80 -15 -125 -51 -156c-26 -22 -68 -38 -103 -38c-16 0 -18 3 -21 31l-7 35l11 15l7 2c43 8 55 13 73 31c19 21 31 55 31 89v59c-59 -4 -69 -4 -94 -4
c-80 0 -135 8 -183 27c-111 44 -174 135 -174 251c0 83 33 156 92 203c52 42 123 61 221 61c26 0 82 -1 138 -3v110zM490 529h-58c-22 0 -32 -3 -37 -13c-5 -9 -5 -9 -6 -66v-280c1 -61 1 -61 5 -69c5 -10 17 -15 38 -15h58v443z" />
    <glyph glyph-name="bullet" unicode="&#x2022;" horiz-adv-x="634" 
d="M320 454c71 0 130 -60 130 -132c0 -73 -59 -132 -132 -132c-72 0 -132 59 -132 132s59 132 134 132z" />
    <glyph glyph-name="quotesinglbase" unicode="&#x201a;" horiz-adv-x="291" 
d="M30 -132v6c69 42 102 83 102 124c0 23 -5 28 -40 40c-24 9 -38 30 -38 59c0 46 37 81 86 81c61 0 106 -53 106 -126c0 -72 -39 -139 -113 -193c-27 -20 -51 -33 -59 -33c-4 0 -7 2 -10 6z" />
    <glyph glyph-name="quotedblbase" unicode="&#x201e;" horiz-adv-x="509" 
d="M30 -132v6c69 42 102 83 102 124c0 23 -5 28 -40 40c-24 9 -38 30 -38 59c0 46 37 81 86 81c61 0 106 -53 106 -126c0 -72 -39 -139 -113 -193c-27 -20 -51 -33 -59 -33c-4 0 -7 2 -10 6zM249 -132v6c68 42 102 83 102 124c0 22 -6 28 -40 40c-25 9 -39 30 -39 58
c0 47 37 82 86 82c62 0 107 -54 107 -127c0 -71 -39 -138 -113 -192c-27 -20 -51 -33 -59 -33c-4 0 -7 2 -10 6z" />
    <glyph glyph-name="quotedblright" unicode="&#x201d;" horiz-adv-x="509" 
d="M30 335v6c69 43 102 83 102 124c0 23 -5 28 -40 40c-24 9 -38 30 -38 58c0 47 37 82 86 82c61 0 106 -54 106 -126s-39 -138 -113 -193c-28 -20 -51 -33 -59 -33c-3 0 -7 2 -10 6zM249 335v6c69 43 102 84 102 125c0 22 -6 27 -40 39c-25 9 -39 30 -39 58
c0 47 37 82 86 82c62 0 107 -54 107 -127c0 -71 -39 -137 -113 -192c-28 -20 -51 -33 -59 -33c-4 0 -6 2 -10 6z" />
    <glyph glyph-name="guillemotright" unicode="&#xbb;" horiz-adv-x="532" 
d="M290 236l-205 -205l-69 42l106 163l-106 162l69 43zM517 236l-205 -205l-69 42l106 163l-106 162l69 43z" />
    <glyph glyph-name="ellipsis" unicode="&#x2026;" horiz-adv-x="867" 
d="M145 182c53 0 96 -43 96 -97c0 -53 -44 -96 -98 -96c-51 0 -95 44 -95 96c0 54 43 97 97 97zM433 182c54 0 97 -43 97 -97c0 -53 -44 -96 -98 -96c-51 0 -95 44 -95 96c0 54 43 97 96 97zM723 182c53 0 96 -43 96 -97c0 -53 -43 -96 -98 -96c-51 0 -95 44 -95 96
c0 54 43 97 97 97z" />
    <glyph glyph-name="perthousand" unicode="&#x2030;" horiz-adv-x="1158" 
d="M202 645c100 0 164 -64 164 -164c0 -104 -70 -170 -178 -170c-106 0 -171 62 -171 163c0 107 69 171 185 171zM190 579c-31 0 -45 -30 -45 -96c0 -68 17 -106 48 -106s45 30 45 94c0 70 -17 108 -48 108zM590 323c100 0 164 -64 164 -164c0 -104 -69 -170 -179 -170
c-105 0 -170 62 -170 163c0 107 69 171 185 171zM578 257c-31 0 -45 -30 -45 -96c0 -68 17 -106 47 -106c32 0 46 30 46 94c0 70 -17 108 -48 108zM557 634h83l-435 -646h-82zM977 323c100 0 164 -64 164 -164c0 -104 -69 -170 -179 -170c-106 0 -170 62 -170 163
c0 107 69 171 185 171zM965 257c-31 0 -45 -30 -45 -96c0 -68 17 -106 48 -106s45 30 45 94c0 70 -17 108 -48 108z" />
    <glyph glyph-name="questiondown" unicode="&#xbf;" horiz-adv-x="426" 
d="M315 -66h50l21 -52c5 -12 6 -19 6 -34s-2 -24 -7 -29c-22 -24 -80 -43 -132 -43c-126 0 -231 91 -231 202c0 45 18 80 57 111c21 17 36 25 87 49c70 32 71 33 71 65h84c7 -40 10 -62 10 -87c0 -50 -14 -65 -104 -116c-62 -36 -74 -47 -74 -70c0 -24 20 -38 54 -38
c38 0 76 15 108 42zM273 433c51 0 95 -44 95 -96c0 -54 -43 -97 -96 -97c-54 0 -97 43 -97 97c0 53 43 96 98 96z" />
    <glyph glyph-name="grave" unicode="`" horiz-adv-x="500" 
d="M198 681l136 -194l-61 -10l-185 144v29z" />
    <glyph glyph-name="acute" unicode="&#xb4;" horiz-adv-x="500" 
d="M302 681l110 -31v-29l-185 -144l-61 10z" />
    <glyph glyph-name="circumflex" unicode="&#x2c6;" horiz-adv-x="500" 
d="M212 671h76l120 -183l-47 -21l-111 94l-111 -94l-47 21z" />
    <glyph glyph-name="tilde" unicode="&#x2dc;" horiz-adv-x="500" 
d="M378 641h6l40 -28c-20 -80 -64 -125 -120 -125c-25 0 -40 6 -80 33c-27 17 -39 22 -53 22c-23 0 -38 -16 -48 -54h-6l-42 28c27 84 67 124 122 124c24 0 33 -4 85 -36c24 -15 33 -19 46 -19c24 0 36 13 50 55z" />
    <glyph glyph-name="macron" unicode="&#xaf;" horiz-adv-x="500" 
d="M105 605h290v-98h-290v98z" />
    <glyph glyph-name="macron" unicode="&#x2c9;" horiz-adv-x="500" 
d="M105 605h290v-98h-290v98z" />
    <glyph glyph-name="breve" unicode="&#x2d8;" horiz-adv-x="500" 
d="M102 644h60c2 -49 31 -73 88 -73c56 0 85 24 87 73h60c1 -7 1 -15 1 -18c0 -90 -59 -150 -148 -150c-90 0 -148 60 -148 153v15z" />
    <glyph glyph-name="dotaccent" unicode="&#x2d9;" horiz-adv-x="500" 
d="M250 629c38 0 68 -31 68 -68c0 -38 -31 -68 -69 -68c-36 0 -67 31 -67 67c0 38 30 69 68 69z" />
    <glyph glyph-name="dieresis" unicode="&#xa8;" horiz-adv-x="500" 
d="M151 624c35 0 63 -29 63 -64s-29 -63 -64 -63c-34 0 -63 29 -63 63c0 35 28 64 64 64zM349 624c35 0 64 -29 64 -64s-29 -63 -64 -63c-34 0 -63 29 -63 63c0 35 28 64 63 64z" />
    <glyph glyph-name="ring" unicode="&#x2da;" horiz-adv-x="500" 
d="M250 703c70 0 126 -52 126 -116s-55 -114 -127 -114c-68 0 -124 51 -124 114c0 64 56 116 125 116zM250 646c-28 0 -49 -25 -49 -59c0 -33 22 -59 51 -59c28 0 48 24 48 59c0 34 -21 59 -50 59z" />
    <glyph glyph-name="cedilla" unicode="&#xb8;" horiz-adv-x="500" 
d="M239 0h70l-30 -50v-9c37 -16 55 -38 55 -67c0 -59 -70 -117 -141 -117c-38 0 -78 21 -78 42c0 3 1 7 4 9l35 31h14c15 -18 30 -26 47 -26s29 11 29 25c0 18 -14 29 -65 56v26z" />
    <glyph glyph-name="hungarumlaut" unicode="&#x2dd;" horiz-adv-x="500" 
d="M243 677l82 -21l3 -30l-142 -159l-61 5zM403 677l82 -21l2 -30l-141 -159l-62 5z" />
    <glyph glyph-name="ogonek" unicode="&#x2db;" horiz-adv-x="500" 
d="M253 0h76c-46 -53 -63 -83 -63 -114c0 -27 22 -43 58 -43c10 0 31 2 41 3h11l-3 -22c-2 -14 -2 -16 -10 -21c-18 -11 -55 -20 -84 -20c-64 0 -107 37 -107 91c0 41 26 82 81 126z" />
    <glyph glyph-name="caron" unicode="&#x2c7;" horiz-adv-x="500" 
d="M288 484h-76l-120 183l47 21l111 -94l111 94l47 -21z" />
    <glyph glyph-name="emdash" unicode="&#x2014;" horiz-adv-x="879" 
d="M37 277h805v-86h-805v86z" />
    <glyph glyph-name="AE" unicode="&#xc6;" horiz-adv-x="984" 
d="M389 634h560v-95h-314v-160h281v-93h-281v-185h327v-101h-503v216h-213l-140 -216h-156zM462 306v238h-9l-153 -238h162z" />
    <glyph glyph-name="ordfeminine" unicode="&#xaa;" horiz-adv-x="377" 
d="M375 318v-32c0 -11 0 -11 -12 -16c-33 -15 -71 -25 -96 -25c-29 0 -44 7 -52 23c-33 -13 -73 -21 -102 -21c-53 0 -83 26 -83 74c0 58 28 73 176 93v4v12c0 19 -12 27 -40 27c-34 0 -57 -9 -77 -31l-31 8l-3 44v5c0 6 2 7 20 13c40 14 76 20 124 20c58 0 92 -11 109 -35
c9 -13 13 -34 12 -67l-2 -67v-21c0 -11 4 -15 13 -15c10 0 28 4 41 10zM208 316v55c-56 -7 -63 -10 -63 -32c0 -24 5 -30 26 -30c10 0 22 2 37 7z" />
    <glyph glyph-name="Lslash" unicode="&#x141;" horiz-adv-x="536" 
d="M249 407l147 109v-96l-147 -109v-210h298v-101h-480v217l-76 -57v96l76 56v322h182v-227z" />
    <glyph glyph-name="Oslash" unicode="&#xd8;" horiz-adv-x="820" 
d="M599 618l49 64h86l-72 -95c82 -55 125 -143 125 -255c0 -207 -158 -343 -399 -343c-60 0 -114 8 -162 25l-53 -70h-85l75 99c-85 56 -129 145 -129 261c0 212 151 342 396 342c64 0 113 -8 169 -28zM261 164l256 355c-33 25 -70 37 -113 37c-110 0 -176 -83 -176 -222
c0 -65 11 -122 33 -170zM564 467l-256 -353c35 -24 69 -35 112 -35c110 0 173 81 173 222c0 65 -9 119 -29 166z" />
    <glyph glyph-name="OE" unicode="&#x152;" horiz-adv-x="1057" 
d="M527 634h493v-95h-314v-160h281v-93h-281v-185h329v-101h-508v11c-47 -15 -96 -22 -147 -22c-205 0 -346 129 -346 317c0 199 153 339 370 339c47 0 83 -6 123 -20v9zM524 103v417c-27 23 -65 36 -110 36c-115 0 -186 -82 -186 -216c0 -156 81 -261 201 -261
c33 0 61 7 95 24z" />
    <glyph glyph-name="ordmasculine" unicode="&#xba;" horiz-adv-x="382" 
d="M204 517c97 0 159 -52 159 -135c0 -84 -69 -135 -182 -135c-104 0 -161 47 -161 132c0 83 73 138 184 138zM186 458c-23 0 -36 -20 -36 -56c0 -59 19 -96 49 -96c23 0 34 18 34 59c0 53 -20 93 -47 93z" />
    <glyph glyph-name="ae" unicode="&#xe6;" horiz-adv-x="797" 
d="M774 197l-291 -16c5 -58 40 -88 103 -88c43 0 98 15 137 37l8 -4l24 -58c1 -4 2 -8 2 -10c0 -3 -6 -7 -17 -13c-75 -36 -153 -56 -223 -56c-61 0 -102 15 -141 51c-82 -33 -151 -51 -201 -51c-90 0 -136 43 -136 128c0 52 19 84 63 103c40 19 60 23 202 42l17 2v7v17
c0 41 -18 56 -67 56c-54 0 -94 -17 -134 -55l-43 14l-4 67c0 18 0 18 10 22c8 4 60 21 75 25c42 10 87 16 133 16c62 0 101 -8 140 -28c41 20 76 28 126 28c137 0 218 -81 218 -217c0 -2 0 -11 -1 -19zM322 185v8c-104 -13 -114 -18 -114 -56c0 -36 12 -50 44 -50
c22 0 60 7 87 17c-12 30 -17 53 -17 81zM476 252l129 12c-3 63 -22 90 -60 90c-43 0 -67 -36 -69 -102z" />
    <glyph glyph-name="dotlessi" unicode="&#x131;" horiz-adv-x="272" 
d="M50 422h172v-422h-172v422z" />
    <glyph glyph-name="lslash" unicode="&#x142;" horiz-adv-x="316" 
d="M84 679h171v-222l88 65v-95l-88 -65v-362h-171v274l-83 -62v94l83 62v311z" />
    <glyph glyph-name="oslash" unicode="&#xf8;" horiz-adv-x="600" 
d="M457 470h74l-55 -75c61 -39 96 -105 96 -183c0 -139 -109 -223 -287 -223c-40 0 -73 3 -103 11l-41 -56l-72 2l56 76c-63 36 -98 101 -98 184c0 136 116 228 290 228c37 0 71 -5 103 -14zM221 143l130 191c-14 14 -37 23 -57 23c-59 0 -90 -41 -90 -116
c0 -34 5 -64 17 -98zM379 274l-128 -189c17 -13 36 -19 59 -19c57 0 84 38 84 116c0 31 -5 63 -15 92z" />
    <glyph glyph-name="oe" unicode="&#x153;" horiz-adv-x="872" 
d="M849 197l-290 -17c8 -58 42 -87 102 -87c39 0 98 16 136 36l8 -2l24 -56c4 -11 4 -11 4 -13c0 -4 -5 -7 -25 -17c-76 -35 -148 -52 -219 -52c-53 0 -92 14 -128 45c-51 -31 -111 -46 -182 -46c-160 0 -252 80 -252 218c0 136 116 228 287 228c67 0 116 -16 168 -53
c42 35 96 53 155 53c96 0 171 -49 199 -130c9 -28 13 -59 13 -107zM292 351c-49 0 -76 -38 -76 -107c0 -105 37 -173 94 -173c50 0 73 35 73 112c0 97 -38 168 -91 168zM552 253l128 11c-2 61 -23 90 -64 90c-42 0 -62 -31 -64 -101z" />
    <glyph glyph-name="germandbls" unicode="&#xdf;" horiz-adv-x="637" 
d="M50 0v422c0 112 11 153 52 194c50 49 136 74 249 74c147 0 219 -44 219 -133c0 -31 -12 -60 -32 -81c-19 -18 -33 -27 -85 -53c-52 -27 -65 -40 -65 -63c0 -17 7 -28 25 -39c15 -9 15 -9 73 -37c101 -49 133 -84 133 -146c0 -89 -85 -149 -213 -149c-37 0 -84 6 -130 16
c-14 3 -15 5 -18 23l-11 73l41 26c32 -33 69 -49 112 -49c33 0 54 14 54 36c0 20 -12 30 -70 55c-107 46 -138 81 -138 153c0 34 10 60 30 81c17 19 18 20 79 59c33 22 50 47 50 76c0 40 -22 58 -70 58s-82 -13 -97 -35c-14 -21 -16 -37 -16 -110v-451h-172z" />
    <glyph glyph-name="onesuperior" unicode="&#xb9;" horiz-adv-x="376" 
d="M214 638h58v-384h-127v276l-76 -32h-21v59z" />
    <glyph glyph-name="logicalnot" unicode="&#xac;" horiz-adv-x="476" 
d="M305 0v156h-273v127h412v-283h-139z" />
    <glyph glyph-name="mu" unicode="&#xb5;" horiz-adv-x="584" 
d="M361 422h172v-422h-165l2 50c-76 -35 -121 -48 -177 -50c18 -53 28 -107 28 -149v-104h-171v675h171v-230c0 -60 11 -77 50 -77c26 0 61 11 90 27v280z" />
    <glyph glyph-name="mu" unicode="&#x3bc;" horiz-adv-x="584" 
d="M361 422h172v-422h-165l2 50c-76 -35 -121 -48 -177 -50c18 -53 28 -107 28 -149v-104h-171v675h171v-230c0 -60 11 -77 50 -77c26 0 61 11 90 27v280z" />
    <glyph glyph-name="trademark" unicode="&#x2122;" horiz-adv-x="769" 
d="M-26 634h312v-61h-99v-256h-114v256h-99v61zM322 634h107l90 -204l96 204h101l19 -317h-105l-5 199l-92 -193l-67 -4l-87 201v-203h-76z" />
    <glyph glyph-name="Eth" unicode="&#xd0;" horiz-adv-x="810" 
d="M87 298h-78v84h78v252c44 1 239 4 246 4c147 0 214 -7 270 -29c112 -44 174 -141 174 -272c0 -152 -86 -269 -229 -314c-53 -17 -115 -23 -237 -23h-224v298zM269 298v-211h43c95 0 125 3 162 18c71 27 107 103 107 224c0 96 -26 161 -78 196c-32 21 -72 29 -143 29
c-19 0 -49 -1 -91 -3v-169h165v-84h-165z" />
    <glyph glyph-name="onehalf" unicode="&#xbd;" horiz-adv-x="846" 
d="M208 638h58v-384h-127v276l-76 -32h-21v59zM571 634h83l-436 -646h-82zM597 89h188l-20 -89h-301v34c8 8 30 31 66 69c92 95 113 125 113 164c0 26 -16 40 -47 40c-38 0 -63 -16 -82 -53c-3 -5 -3 -5 -10 -5h-13c-7 0 -7 1 -10 17l-6 36l-1 11c0 8 13 22 36 37
c36 25 77 37 121 37c85 0 140 -40 140 -102c0 -60 -41 -106 -174 -196z" />
    <glyph glyph-name="plusminus" unicode="&#xb1;" 
d="M235 366v155c0 18 1 19 29 19h40c29 0 29 0 29 -25v-149h154c18 0 18 0 19 -29v-40c-1 -29 -1 -29 -25 -29h-148v-138c0 -17 -3 -19 -29 -19h-40c-28 1 -29 2 -29 19v140h-155c-18 0 -19 2 -19 27v40c0 26 2 29 19 29h155zM80 80h407c18 0 18 0 19 -29v-40
c0 -28 -1 -29 -25 -29h-401c-17 0 -19 2 -19 29v40c0 26 2 29 19 29z" />
    <glyph glyph-name="Thorn" unicode="&#xde;" horiz-adv-x="622" 
d="M67 634h182v-95c27 2 50 3 82 3c88 0 138 -8 179 -29c63 -32 100 -92 100 -161s-36 -134 -94 -169c-46 -28 -116 -43 -200 -43c-21 0 -38 1 -67 3v-143h-182v634zM249 456v-225c16 -1 25 -1 39 -1c93 0 126 29 126 111c0 49 -13 84 -37 100c-17 12 -41 16 -91 16
c-6 0 -10 0 -37 -1z" />
    <glyph glyph-name="onequarter" unicode="&#xbc;" horiz-adv-x="846" 
d="M203 638h58v-384h-127v276l-76 -32h-21v59zM571 634h83l-435 -646h-83zM646 381h93v-233h49v-74h-49v-74h-118v74h-182v60zM627 148l4 132l-111 -132h107z" />
    <glyph glyph-name="divide" unicode="&#xf7;" 
d="M283 542c42 0 76 -34 76 -76c0 -41 -34 -75 -76 -75c-41 0 -75 34 -75 75c0 42 34 76 75 76zM283 243c42 0 76 -34 76 -76s-34 -75 -76 -75c-41 0 -75 34 -75 75c0 42 34 76 75 76zM80 366h407c18 0 18 0 19 -29v-40c-1 -29 -1 -29 -25 -29h-401c-17 0 -19 2 -19 29v40
c0 26 2 29 19 29z" />
    <glyph glyph-name="brokenbar" unicode="&#xa6;" horiz-adv-x="475" 
d="M152 634h172v-343h-172v343zM152 145h172v-304h-172v304z" />
    <glyph glyph-name="degree" unicode="&#xb0;" 
d="M283 657c96 0 173 -78 173 -174c0 -95 -78 -172 -174 -172c-93 0 -171 79 -171 172c0 96 77 174 172 174zM283 565c-41 0 -75 -36 -75 -82c0 -43 34 -80 75 -80c42 0 76 36 76 80c0 45 -34 82 -76 82z" />
    <glyph glyph-name="thorn" unicode="&#xfe;" horiz-adv-x="591" 
d="M50 679h169v-295c59 34 108 49 159 49c114 0 185 -76 185 -198c0 -147 -103 -240 -268 -240c-24 0 -43 1 -74 5v-253h-171v932zM221 303v-191c31 -11 57 -16 85 -16c56 0 77 26 77 96c0 86 -30 130 -90 130c-24 0 -49 -6 -72 -19z" />
    <glyph glyph-name="threequarters" unicode="&#xbe;" horiz-adv-x="846" 
d="M119 416l-11 49c74 19 100 39 100 76c0 23 -13 35 -40 35c-31 0 -55 -14 -68 -40c-2 -4 -3 -4 -8 -4h-16c-5 0 -5 0 -9 13l-8 33l-1 8c0 7 15 18 41 30c37 17 72 25 112 25c72 0 120 -31 120 -77c0 -38 -25 -62 -86 -85c70 -4 109 -39 109 -97c0 -81 -76 -135 -187 -135
c-51 0 -93 12 -119 34c-7 6 -8 10 -8 29c0 17 0 18 8 23l23 14c8 5 9 5 16 5h14c5 0 6 -1 7 -4c11 -27 36 -44 66 -44c34 0 54 21 54 58c0 41 -20 62 -59 62c-13 0 -27 -2 -50 -8zM610 634h83l-435 -646h-82zM671 381h93v-233h49v-74h-49v-74h-118v74h-182v60zM652 148
l4 132l-111 -132h107z" />
    <glyph glyph-name="twosuperior" unicode="&#xb2;" horiz-adv-x="376" 
d="M155 342h188l-20 -88h-301v33c82 86 128 135 138 148c29 35 41 59 41 86c0 26 -16 40 -46 40c-39 0 -64 -16 -83 -53c-2 -4 -4 -5 -10 -5h-13c-6 0 -7 1 -10 17l-6 37c-1 9 -1 9 -1 10c0 8 13 22 36 37c36 25 76 37 121 37c85 0 140 -40 140 -102c0 -42 -24 -81 -77 -126
c-19 -16 -39 -30 -97 -71z" />
    <glyph glyph-name="registered" unicode="&#xae;" horiz-adv-x="766" 
d="M231 149v354c76 2 120 3 132 3c63 0 89 -4 113 -17c33 -19 50 -46 50 -81c0 -47 -29 -80 -86 -98c41 -82 77 -119 121 -125l1 -2l-5 -30c-1 -7 -20 -11 -52 -11c-67 0 -106 37 -159 150h-17v-143h-98zM329 454v-111c18 -1 21 -1 23 -1c48 0 72 20 72 61
c0 38 -20 51 -78 51h-17zM386 645c187 0 335 -147 335 -333c0 -176 -154 -323 -338 -323c-187 0 -338 147 -338 328c0 182 151 328 341 328zM385 573c-145 0 -262 -115 -262 -259c0 -143 117 -259 260 -259c141 0 260 117 260 255c0 145 -115 263 -258 263z" />
    <glyph glyph-name="minus" unicode="&#x2212;" 
d="M80 366h407c18 0 18 0 19 -29v-40c-1 -29 -1 -29 -25 -29h-401c-17 0 -19 2 -19 29v40c0 26 2 29 19 29z" />
    <glyph glyph-name="eth" unicode="&#xf0;" horiz-adv-x="600" 
d="M266 647l86 48l11 -17c22 -34 26 -41 33 -54l82 45l31 -55l-79 -44c101 -165 142 -268 142 -358c0 -139 -109 -223 -289 -223c-73 0 -127 13 -169 40c-55 36 -87 101 -87 176c0 129 108 223 255 223c48 0 84 -12 120 -39c-10 25 -46 100 -62 129l-79 -41l-33 55l79 42
c-19 35 -26 48 -41 73zM292 351c-49 0 -76 -38 -76 -106c0 -105 37 -173 94 -173c50 0 73 35 73 111c0 97 -38 168 -91 168z" />
    <glyph glyph-name="multiply" unicode="&#xd7;" 
d="M214 317l-109 110c-7 6 -9 9 -9 13s4 9 15 20l29 29c14 13 17 16 21 16c3 0 6 -3 17 -13l105 -105l109 109c8 8 10 9 13 9c4 0 7 -2 21 -16l29 -29c9 -9 15 -17 15 -21c0 -3 -2 -7 -12 -16l-106 -106l110 -109c6 -7 8 -9 8 -13s-5 -11 -15 -21l-29 -28
c-9 -10 -18 -16 -21 -16s-6 2 -13 9l-110 111l-110 -110c-6 -6 -9 -8 -12 -8c-4 0 -12 5 -20 13l-29 29c-11 11 -15 17 -15 21c0 3 3 7 9 13z" />
    <glyph glyph-name="threesuperior" unicode="&#xb3;" horiz-adv-x="376" 
d="M108 416l-11 49c74 19 100 39 100 76c0 23 -13 35 -40 35c-31 0 -55 -14 -68 -40c-2 -4 -3 -4 -8 -4h-16c-5 0 -5 0 -9 13l-8 33l-1 8c0 7 15 18 41 30c37 17 72 25 112 25c72 0 120 -31 120 -77c0 -38 -25 -62 -86 -85c70 -4 109 -39 109 -97c0 -81 -76 -135 -187 -135
c-51 0 -93 12 -119 34c-7 6 -8 10 -8 29c0 17 0 18 8 23l23 14c8 5 9 5 16 5h14c5 0 6 -1 7 -4c11 -27 36 -44 66 -44c34 0 54 21 54 58c0 41 -20 62 -59 62c-13 0 -27 -2 -50 -8z" />
    <glyph glyph-name="copyright" unicode="&#xa9;" horiz-adv-x="766" 
d="M539 475l-4 -43c0 -7 -1 -9 -4 -11l-6 -3c0 -1 -3 -1 -4 -1c-2 0 -2 0 -12 4c-21 9 -71 18 -100 18c-54 0 -84 -40 -84 -113c0 -77 37 -127 94 -127c32 0 78 11 102 24c1 1 2 1 3 1s1 0 2 -1l5 -4c3 -2 4 -3 4 -6c0 -1 0 -1 -1 -5l-6 -49c0 -5 -3 -8 -8 -10
c-22 -8 -78 -16 -111 -16c-122 0 -200 70 -200 178c0 115 86 190 219 190c35 0 87 -7 105 -15c5 -2 7 -5 6 -11zM386 645c187 0 335 -147 335 -333c0 -176 -154 -323 -338 -323c-187 0 -338 147 -338 328c0 182 151 328 341 328zM385 573c-145 0 -262 -115 -262 -259
c0 -143 117 -259 260 -259c141 0 260 117 260 255c0 145 -115 263 -258 263z" />
    <glyph glyph-name="Aacute" unicode="&#xc1;" horiz-adv-x="689" 
d="M295 634h142l258 -634h-205l-59 160h-232l-65 -160h-145zM402 250l-79 221l-88 -221h167zM457 882l111 -48l-5 -31l-213 -122l-62 19z" />
    <glyph glyph-name="Acircumflex" unicode="&#xc2;" horiz-adv-x="689" 
d="M295 634h142l258 -634h-205l-59 160h-232l-65 -160h-145zM402 250l-79 221l-88 -221h167zM325 878h73l158 -180l-50 -29l-144 101l-145 -101l-50 29z" />
    <glyph glyph-name="Adieresis" unicode="&#xc4;" horiz-adv-x="689" 
d="M295 634h142l258 -634h-205l-59 160h-232l-65 -160h-145zM402 250l-79 221l-88 -221h167zM259 833c37 0 67 -30 67 -67s-30 -67 -68 -67c-36 0 -66 31 -66 67c0 37 30 67 67 67zM464 833c37 0 67 -30 67 -67s-30 -67 -68 -67c-36 0 -66 31 -66 67c0 37 30 67 67 67z" />
    <glyph glyph-name="Agrave" unicode="&#xc0;" horiz-adv-x="689" 
d="M295 634h142l258 -634h-205l-59 160h-232l-65 -160h-145zM402 250l-79 221l-88 -221h167zM274 882l170 -182l-62 -19l-214 122l-4 31z" />
    <glyph glyph-name="Aring" unicode="&#xc5;" horiz-adv-x="689" 
d="M295 634h142l258 -634h-205l-59 160h-232l-65 -160h-145zM402 250l-79 221l-88 -221h167zM367 914c72 0 130 -53 130 -119c0 -67 -57 -118 -131 -118c-71 0 -128 53 -128 117c0 67 58 120 129 120zM368 854c-30 0 -51 -25 -51 -60c0 -34 23 -60 52 -60s49 25 49 60
s-21 60 -50 60z" />
    <glyph glyph-name="Atilde" unicode="&#xc3;" horiz-adv-x="689" 
d="M295 634h142l258 -634h-205l-59 160h-232l-65 -160h-145zM402 250l-79 221l-88 -221h167zM506 836h7l43 -21c-22 -79 -69 -123 -132 -123c-25 0 -41 4 -85 24c-29 12 -42 16 -56 16c-26 0 -41 -11 -53 -39h-6l-46 21c32 84 73 121 134 121c24 0 36 -4 90 -26
c25 -11 37 -14 50 -14c25 0 39 11 54 41z" />
    <glyph glyph-name="Ccedilla" unicode="&#xc7;" horiz-adv-x="641" 
d="M438 -11l-24 -40v-10c37 -16 56 -39 56 -69c0 -61 -72 -121 -145 -121c-40 0 -81 22 -81 44c0 4 1 5 5 9l36 32h14c16 -19 31 -27 49 -27c17 0 29 11 29 26c0 18 -13 29 -66 58v27l54 72c-64 4 -107 13 -151 32c-112 48 -180 154 -180 282c0 205 160 341 400 341
c61 0 131 -9 189 -25c12 -4 15 -6 15 -11v-3c-1 -2 -1 -4 -1 -5l-9 -73c-1 -12 -1 -12 -11 -17l-20 -10c-8 -4 -8 -4 -10 -4c-1 0 -3 1 -11 6c-53 31 -111 48 -171 48c-119 0 -175 -68 -175 -210c0 -168 73 -259 206 -259c54 0 115 20 151 48c8 6 9 7 11 7c1 0 3 -1 7 -3
l17 -10c6 -4 7 -5 7 -8c0 -1 0 -1 -1 -8l-11 -72c-2 -13 -2 -14 -7 -17c-31 -13 -115 -27 -172 -30z" />
    <glyph glyph-name="Eacute" unicode="&#xc9;" horiz-adv-x="598" 
d="M67 634h495v-95h-313v-160h280v-93h-280v-185h326v-101h-508v634zM422 882l111 -48l-5 -31l-213 -122l-62 19z" />
    <glyph glyph-name="Ecircumflex" unicode="&#xca;" horiz-adv-x="598" 
d="M67 634h495v-95h-313v-160h280v-93h-280v-185h326v-101h-508v634zM290 878h73l158 -180l-50 -29l-144 101l-145 -101l-50 29z" />
    <glyph glyph-name="Edieresis" unicode="&#xcb;" horiz-adv-x="598" 
d="M67 634h495v-95h-313v-160h280v-93h-280v-185h326v-101h-508v634zM236 833c37 0 67 -30 67 -67s-30 -67 -68 -67c-36 0 -66 31 -66 67c0 37 30 67 67 67zM441 833c37 0 67 -30 67 -67s-30 -67 -68 -67c-36 0 -66 31 -66 67c0 37 30 67 67 67z" />
    <glyph glyph-name="Egrave" unicode="&#xc8;" horiz-adv-x="598" 
d="M67 634h495v-95h-313v-160h280v-93h-280v-185h326v-101h-508v634zM245 882l170 -182l-62 -19l-214 122l-4 31z" />
    <glyph glyph-name="Iacute" unicode="&#xcd;" horiz-adv-x="317" 
d="M67 634h182v-634h-182v634zM253 882l111 -48l-5 -31l-213 -122l-62 19z" />
    <glyph glyph-name="Icircumflex" unicode="&#xce;" horiz-adv-x="317" 
d="M67 634h182v-634h-182v634zM122 878h73l158 -180l-50 -29l-144 101l-145 -101l-50 29z" />
    <glyph glyph-name="Idieresis" unicode="&#xcf;" horiz-adv-x="317" 
d="M67 634h182v-634h-182v634zM73 833c37 0 67 -30 67 -67s-30 -67 -68 -67c-36 0 -66 31 -66 67c0 37 30 67 67 67zM244 833c37 0 67 -30 67 -67s-31 -67 -68 -67c-36 0 -66 31 -66 67c0 37 30 67 67 67z" />
    <glyph glyph-name="Igrave" unicode="&#xcc;" horiz-adv-x="317" 
d="M67 634h182v-634h-182v634zM65 882l170 -182l-62 -19l-214 122l-4 31z" />
    <glyph glyph-name="Ntilde" unicode="&#xd1;" horiz-adv-x="749" 
d="M67 634h148l347 -389l-7 389h133l-7 -626l-118 -19l-379 421l10 -410h-132zM539 836h7l43 -21c-22 -79 -69 -123 -132 -123c-25 0 -41 4 -85 24c-29 12 -42 16 -56 16c-26 0 -41 -11 -53 -39h-6l-46 21c32 84 73 121 134 121c24 0 36 -4 90 -26c25 -11 37 -14 50 -14
c25 0 39 11 54 41z" />
    <glyph glyph-name="Oacute" unicode="&#xd3;" horiz-adv-x="820" 
d="M431 646c217 0 356 -123 356 -315c0 -205 -159 -342 -398 -342c-220 0 -355 121 -355 316c0 211 151 341 397 341zM405 556c-110 0 -177 -83 -177 -219c0 -155 77 -258 193 -258c108 0 172 82 172 219c0 158 -73 258 -188 258zM494 882l111 -48l-5 -31l-213 -122l-62 19z
" />
    <glyph glyph-name="Ocircumflex" unicode="&#xd4;" horiz-adv-x="820" 
d="M431 646c217 0 356 -123 356 -315c0 -205 -159 -342 -398 -342c-220 0 -355 121 -355 316c0 211 151 341 397 341zM405 556c-110 0 -177 -83 -177 -219c0 -155 77 -258 193 -258c108 0 172 82 172 219c0 158 -73 258 -188 258zM374 878h73l158 -180l-50 -29l-144 101
l-145 -101l-50 29z" />
    <glyph glyph-name="Odieresis" unicode="&#xd6;" horiz-adv-x="820" 
d="M431 646c217 0 356 -123 356 -315c0 -205 -159 -342 -398 -342c-220 0 -355 121 -355 316c0 211 151 341 397 341zM405 556c-110 0 -177 -83 -177 -219c0 -155 77 -258 193 -258c108 0 172 82 172 219c0 158 -73 258 -188 258zM308 833c37 0 67 -30 67 -67
s-30 -67 -68 -67c-36 0 -66 31 -66 67c0 37 30 67 67 67zM513 833c37 0 67 -30 67 -67s-30 -67 -68 -67c-36 0 -66 31 -66 67c0 37 30 67 67 67z" />
    <glyph glyph-name="Ograve" unicode="&#xd2;" horiz-adv-x="820" 
d="M431 646c217 0 356 -123 356 -315c0 -205 -159 -342 -398 -342c-220 0 -355 121 -355 316c0 211 151 341 397 341zM405 556c-110 0 -177 -83 -177 -219c0 -155 77 -258 193 -258c108 0 172 82 172 219c0 158 -73 258 -188 258zM329 882l170 -182l-62 -19l-214 122l-4 31z
" />
    <glyph glyph-name="Otilde" unicode="&#xd5;" horiz-adv-x="820" 
d="M431 646c217 0 356 -123 356 -315c0 -205 -159 -342 -398 -342c-220 0 -355 121 -355 316c0 211 151 341 397 341zM405 556c-110 0 -177 -83 -177 -219c0 -155 77 -258 193 -258c108 0 172 82 172 219c0 158 -73 258 -188 258zM555 836h7l43 -21
c-22 -79 -69 -123 -132 -123c-25 0 -41 4 -85 24c-29 12 -42 16 -56 16c-26 0 -41 -11 -53 -39h-6l-46 21c32 84 73 121 134 121c24 0 36 -4 90 -26c25 -11 37 -14 50 -14c25 0 39 11 54 41z" />
    <glyph glyph-name="Scaron" unicode="&#x160;" horiz-adv-x="563" 
d="M503 603l7 -58c1 -8 1 -12 1 -12c0 -4 -2 -6 -9 -11l-24 -14c-3 -1 -8 -3 -11 -3s-3 0 -20 11c-38 23 -94 37 -151 37c-61 0 -96 -23 -96 -64c0 -18 9 -32 30 -46c18 -12 20 -13 110 -49c75 -29 113 -50 143 -77c32 -30 52 -77 52 -123c0 -89 -60 -158 -163 -188
c-39 -11 -87 -17 -143 -17c-46 0 -117 7 -164 16c-29 5 -31 6 -32 24l-4 73c-1 10 -1 15 -1 16c0 4 2 6 10 10l25 13c3 2 10 4 12 4c1 0 4 -1 7 -4c46 -34 124 -59 186 -59c63 0 100 27 100 72c0 30 -12 47 -48 66c-20 12 -24 13 -137 58c-101 40 -146 93 -146 175
c0 123 101 192 283 192c55 0 116 -6 168 -17c12 -2 12 -2 15 -25zM346 681h-73l-158 180l50 29l145 -101l144 101l50 -29z" />
    <glyph glyph-name="Uacute" unicode="&#xda;" horiz-adv-x="738" 
d="M62 634h182v-354c0 -90 6 -116 33 -141c23 -22 61 -33 112 -33c66 0 111 16 132 49c19 27 24 62 24 168v311h137l-7 -343c-2 -71 -7 -107 -19 -141c-40 -106 -148 -161 -316 -161c-108 0 -187 28 -231 82c-36 44 -47 92 -47 205v358zM478 882l111 -48l-5 -31l-213 -122
l-62 19z" />
    <glyph glyph-name="Ucircumflex" unicode="&#xdb;" horiz-adv-x="738" 
d="M62 634h182v-354c0 -90 6 -116 33 -141c23 -22 61 -33 112 -33c66 0 111 16 132 49c19 27 24 62 24 168v311h137l-7 -343c-2 -71 -7 -107 -19 -141c-40 -106 -148 -161 -316 -161c-108 0 -187 28 -231 82c-36 44 -47 92 -47 205v358zM358 878h73l158 -180l-50 -29
l-144 101l-145 -101l-50 29z" />
    <glyph glyph-name="Udieresis" unicode="&#xdc;" horiz-adv-x="738" 
d="M62 634h182v-354c0 -90 6 -116 33 -141c23 -22 61 -33 112 -33c66 0 111 16 132 49c19 27 24 62 24 168v311h137l-7 -343c-2 -71 -7 -107 -19 -141c-40 -106 -148 -161 -316 -161c-108 0 -187 28 -231 82c-36 44 -47 92 -47 205v358zM292 833c37 0 67 -30 67 -67
s-30 -67 -68 -67c-36 0 -66 31 -66 67c0 37 30 67 67 67zM497 833c37 0 67 -30 67 -67s-30 -67 -68 -67c-36 0 -66 31 -66 67c0 37 30 67 67 67z" />
    <glyph glyph-name="Ugrave" unicode="&#xd9;" horiz-adv-x="738" 
d="M62 634h182v-354c0 -90 6 -116 33 -141c23 -22 61 -33 112 -33c66 0 111 16 132 49c19 27 24 62 24 168v311h137l-7 -343c-2 -71 -7 -107 -19 -141c-40 -106 -148 -161 -316 -161c-108 0 -187 28 -231 82c-36 44 -47 92 -47 205v358zM285 882l170 -182l-62 -19l-214 122
l-4 31z" />
    <glyph glyph-name="Yacute" unicode="&#xdd;" horiz-adv-x="610" 
d="M-24 634h222l137 -248l138 248h160l-244 -350v-284h-182v270zM422 882l111 -48l-5 -31l-213 -122l-62 19z" />
    <glyph glyph-name="Ydieresis" unicode="&#x178;" horiz-adv-x="610" 
d="M-24 634h222l137 -248l138 248h160l-244 -350v-284h-182v270zM236 833c37 0 67 -30 67 -67s-30 -67 -68 -67c-36 0 -66 31 -66 67c0 37 30 67 67 67zM441 833c37 0 67 -30 67 -67s-30 -67 -68 -67c-36 0 -66 31 -66 67c0 37 30 67 67 67z" />
    <glyph glyph-name="Zcaron" unicode="&#x17d;" horiz-adv-x="605" 
d="M31 634h557v-72l-344 -461h350l-17 -101h-566v77l345 462h-325v95zM350 681h-73l-158 180l50 29l145 -101l144 101l50 -29z" />
    <glyph glyph-name="aacute" unicode="&#xe1;" horiz-adv-x="583" 
d="M587 101v-47c0 -19 0 -19 -20 -28c-51 -24 -113 -41 -152 -41c-40 0 -62 12 -73 39c-56 -21 -122 -35 -169 -35c-84 0 -129 43 -129 123c0 64 26 96 92 116c33 10 107 24 192 37v7v22c-1 35 -23 50 -71 50c-60 0 -99 -16 -132 -55l-41 14l-5 67v9c0 9 5 11 32 22
c64 23 121 32 198 32c73 0 116 -10 148 -36c30 -23 39 -50 39 -116l-1 -16l-2 -111l-1 -24v-13c0 -18 8 -27 24 -27c17 0 45 7 67 15zM331 99v93c-26 -2 -60 -7 -78 -11c-33 -7 -40 -15 -40 -44c0 -40 9 -50 48 -50c22 0 43 4 70 12zM360 681l110 -31v-29l-185 -144l-61 10z
" />
    <glyph glyph-name="acircumflex" unicode="&#xe2;" horiz-adv-x="583" 
d="M587 101v-47c0 -19 0 -19 -20 -28c-51 -24 -113 -41 -152 -41c-40 0 -62 12 -73 39c-56 -21 -122 -35 -169 -35c-84 0 -129 43 -129 123c0 64 26 96 92 116c33 10 107 24 192 37v7v22c-1 35 -23 50 -71 50c-60 0 -99 -16 -132 -55l-41 14l-5 67v9c0 9 5 11 32 22
c64 23 121 32 198 32c73 0 116 -10 148 -36c30 -23 39 -50 39 -116l-1 -16l-2 -111l-1 -24v-13c0 -18 8 -27 24 -27c17 0 45 7 67 15zM331 99v93c-26 -2 -60 -7 -78 -11c-33 -7 -40 -15 -40 -44c0 -40 9 -50 48 -50c22 0 43 4 70 12zM262 671h76l120 -183l-47 -21l-111 94
l-111 -94l-47 21z" />
    <glyph glyph-name="adieresis" unicode="&#xe4;" horiz-adv-x="583" 
d="M587 101v-47c0 -19 0 -19 -20 -28c-51 -24 -113 -41 -152 -41c-40 0 -62 12 -73 39c-56 -21 -122 -35 -169 -35c-84 0 -129 43 -129 123c0 64 26 96 92 116c33 10 107 24 192 37v7v22c-1 35 -23 50 -71 50c-60 0 -99 -16 -132 -55l-41 14l-5 67v9c0 9 5 11 32 22
c64 23 121 32 198 32c73 0 116 -10 148 -36c30 -23 39 -50 39 -116l-1 -16l-2 -111l-1 -24v-13c0 -18 8 -27 24 -27c17 0 45 7 67 15zM331 99v93c-26 -2 -60 -7 -78 -11c-33 -7 -40 -15 -40 -44c0 -40 9 -50 48 -50c22 0 43 4 70 12zM198 624c35 0 63 -29 63 -64
s-29 -63 -64 -63c-34 0 -63 29 -63 63c0 35 28 64 64 64zM396 624c35 0 64 -29 64 -64s-29 -63 -64 -63c-34 0 -63 29 -63 63c0 35 28 64 63 64z" />
    <glyph glyph-name="agrave" unicode="&#xe0;" horiz-adv-x="583" 
d="M587 101v-47c0 -19 0 -19 -20 -28c-51 -24 -113 -41 -152 -41c-40 0 -62 12 -73 39c-56 -21 -122 -35 -169 -35c-84 0 -129 43 -129 123c0 64 26 96 92 116c33 10 107 24 192 37v7v22c-1 35 -23 50 -71 50c-60 0 -99 -16 -132 -55l-41 14l-5 67v9c0 9 5 11 32 22
c64 23 121 32 198 32c73 0 116 -10 148 -36c30 -23 39 -50 39 -116l-1 -16l-2 -111l-1 -24v-13c0 -18 8 -27 24 -27c17 0 45 7 67 15zM331 99v93c-26 -2 -60 -7 -78 -11c-33 -7 -40 -15 -40 -44c0 -40 9 -50 48 -50c22 0 43 4 70 12zM239 681l136 -194l-61 -10l-185 144v29z
" />
    <glyph glyph-name="aring" unicode="&#xe5;" horiz-adv-x="583" 
d="M587 101v-47c0 -19 0 -19 -20 -28c-51 -24 -113 -41 -152 -41c-40 0 -62 12 -73 39c-56 -21 -122 -35 -169 -35c-84 0 -129 43 -129 123c0 64 26 96 92 116c33 10 107 24 192 37v7v22c-1 35 -23 50 -71 50c-60 0 -99 -16 -132 -55l-41 14l-5 67v9c0 9 5 11 32 22
c64 23 121 32 198 32c73 0 116 -10 148 -36c30 -23 39 -50 39 -116l-1 -16l-2 -111l-1 -24v-13c0 -18 8 -27 24 -27c17 0 45 7 67 15zM331 99v93c-26 -2 -60 -7 -78 -11c-33 -7 -40 -15 -40 -44c0 -40 9 -50 48 -50c22 0 43 4 70 12zM302 703c70 0 126 -52 126 -116
s-55 -114 -127 -114c-68 0 -124 51 -124 114c0 64 56 116 125 116zM302 646c-28 0 -49 -25 -49 -59c0 -33 22 -59 51 -59c28 0 48 24 48 59c0 34 -21 59 -50 59z" />
    <glyph glyph-name="atilde" unicode="&#xe3;" horiz-adv-x="583" 
d="M587 101v-47c0 -19 0 -19 -20 -28c-51 -24 -113 -41 -152 -41c-40 0 -62 12 -73 39c-56 -21 -122 -35 -169 -35c-84 0 -129 43 -129 123c0 64 26 96 92 116c33 10 107 24 192 37v7v22c-1 35 -23 50 -71 50c-60 0 -99 -16 -132 -55l-41 14l-5 67v9c0 9 5 11 32 22
c64 23 121 32 198 32c73 0 116 -10 148 -36c30 -23 39 -50 39 -116l-1 -16l-2 -111l-1 -24v-13c0 -18 8 -27 24 -27c17 0 45 7 67 15zM331 99v93c-26 -2 -60 -7 -78 -11c-33 -7 -40 -15 -40 -44c0 -40 9 -50 48 -50c22 0 43 4 70 12zM425 641h6l40 -28
c-20 -80 -64 -125 -120 -125c-25 0 -40 6 -80 33c-27 17 -39 22 -53 22c-23 0 -38 -16 -48 -54h-6l-42 28c27 84 67 124 122 124c24 0 33 -4 85 -36c24 -15 33 -19 46 -19c24 0 36 13 50 55z" />
    <glyph glyph-name="ccedilla" unicode="&#xe7;" horiz-adv-x="466" 
d="M402 291h-32c-22 22 -47 31 -90 31c-51 0 -72 -25 -72 -84c0 -41 11 -82 29 -105c17 -23 45 -34 82 -34c39 0 71 10 111 36l12 -6v-51v-12c8 -17 -79 -63 -135 -70l-27 -46v-9c36 -16 55 -38 55 -67c0 -59 -70 -117 -141 -117c-40 0 -78 21 -78 42c0 4 1 7 4 9l35 31h14
c15 -18 30 -26 48 -26c16 0 28 11 28 25c0 18 -14 30 -65 56v26l51 69c-127 4 -203 77 -203 193c0 143 120 251 277 251c50 0 101 -11 132 -29c10 -5 13 -11 13 -25c0 -25 0 -25 -10 -38z" />
    <glyph glyph-name="eacute" unicode="&#xe9;" horiz-adv-x="525" 
d="M502 197l-290 -17c8 -58 42 -87 102 -87c39 0 98 16 136 36l8 -2l24 -56c1 -4 3 -10 3 -13c0 -4 -5 -7 -25 -17c-77 -35 -147 -52 -220 -52c-132 0 -212 78 -212 207c0 142 103 238 257 238c102 0 175 -47 204 -130c9 -28 13 -59 13 -107zM205 253l128 11
c-2 60 -23 90 -64 90c-42 0 -62 -31 -64 -101zM328 681l110 -31v-29l-185 -144l-61 10z" />
    <glyph glyph-name="ecircumflex" unicode="&#xea;" horiz-adv-x="525" 
d="M502 197l-290 -17c8 -58 42 -87 102 -87c39 0 98 16 136 36l8 -2l24 -56c1 -4 3 -10 3 -13c0 -4 -5 -7 -25 -17c-77 -35 -147 -52 -220 -52c-132 0 -212 78 -212 207c0 142 103 238 257 238c102 0 175 -47 204 -130c9 -28 13 -59 13 -107zM205 253l128 11
c-2 60 -23 90 -64 90c-42 0 -62 -31 -64 -101zM238 671h76l120 -183l-47 -21l-111 94l-111 -94l-47 21z" />
    <glyph glyph-name="edieresis" unicode="&#xeb;" horiz-adv-x="525" 
d="M502 197l-290 -17c8 -58 42 -87 102 -87c39 0 98 16 136 36l8 -2l24 -56c1 -4 3 -10 3 -13c0 -4 -5 -7 -25 -17c-77 -35 -147 -52 -220 -52c-132 0 -212 78 -212 207c0 142 103 238 257 238c102 0 175 -47 204 -130c9 -28 13 -59 13 -107zM205 253l128 11
c-2 60 -23 90 -64 90c-42 0 -62 -31 -64 -101zM177 624c35 0 63 -29 63 -64s-29 -63 -64 -63c-34 0 -63 29 -63 63c0 35 28 64 64 64zM375 624c35 0 64 -29 64 -64s-29 -63 -64 -63c-34 0 -63 29 -63 63c0 35 28 64 63 64z" />
    <glyph glyph-name="egrave" unicode="&#xe8;" horiz-adv-x="525" 
d="M502 197l-290 -17c8 -58 42 -87 102 -87c39 0 98 16 136 36l8 -2l24 -56c1 -4 3 -10 3 -13c0 -4 -5 -7 -25 -17c-77 -35 -147 -52 -220 -52c-132 0 -212 78 -212 207c0 142 103 238 257 238c102 0 175 -47 204 -130c9 -28 13 -59 13 -107zM205 253l128 11
c-2 60 -23 90 -64 90c-42 0 -62 -31 -64 -101zM221 681l136 -194l-61 -10l-185 144v29z" />
    <glyph glyph-name="iacute" unicode="&#xed;" horiz-adv-x="272" 
d="M50 422h172v-422h-172v422zM192 682l112 -24l2 -29l-175 -156l-61 6z" />
    <glyph glyph-name="icircumflex" unicode="&#xee;" horiz-adv-x="272" 
d="M50 422h172v-422h-172v422zM98 671h76l120 -183l-47 -21l-111 94l-111 -94l-47 21z" />
    <glyph glyph-name="idieresis" unicode="&#xef;" horiz-adv-x="272" 
d="M49 422h172v-422h-172v422zM56 624c35 0 63 -29 63 -64s-29 -63 -64 -63c-34 0 -63 29 -63 63c0 35 28 64 64 64zM216 624c35 0 63 -29 63 -64s-29 -63 -64 -63c-34 0 -63 29 -63 63c0 35 29 64 64 64z" />
    <glyph glyph-name="igrave" unicode="&#xec;" horiz-adv-x="272" 
d="M50 422h172v-422h-172v422zM80 682l122 -203l-61 -6l-175 156l2 29z" />
    <glyph glyph-name="ntilde" unicode="&#xf1;" horiz-adv-x="585" 
d="M50 422h172l-2 -50c70 40 134 61 187 61c54 0 98 -29 116 -76c10 -27 12 -46 12 -139v-218h-172v214c0 38 -2 58 -5 68c-6 16 -20 25 -42 25c-26 0 -61 -12 -94 -32v-275h-172v422zM437 641h6l40 -28c-20 -80 -64 -125 -120 -125c-25 0 -40 6 -80 33
c-27 17 -39 22 -53 22c-23 0 -38 -16 -48 -54h-6l-42 28c27 84 67 124 122 124c24 0 33 -4 85 -36c24 -15 33 -19 46 -19c24 0 36 13 50 55z" />
    <glyph glyph-name="oacute" unicode="&#xf3;" horiz-adv-x="600" 
d="M319 434c155 0 253 -86 253 -222c0 -139 -109 -223 -289 -223c-73 0 -127 13 -169 40c-55 36 -87 101 -87 177c0 137 117 228 292 228zM292 351c-49 0 -76 -38 -76 -106c0 -105 37 -173 94 -173c50 0 73 35 73 111c0 97 -38 168 -91 168zM352 681l110 -31v-29l-185 -144
l-61 10z" />
    <glyph glyph-name="ocircumflex" unicode="&#xf4;" horiz-adv-x="600" 
d="M319 434c155 0 253 -86 253 -222c0 -139 -109 -223 -289 -223c-73 0 -127 13 -169 40c-55 36 -87 101 -87 177c0 137 117 228 292 228zM292 351c-49 0 -76 -38 -76 -106c0 -105 37 -173 94 -173c50 0 73 35 73 111c0 97 -38 168 -91 168zM262 671h76l120 -183l-47 -21
l-111 94l-111 -94l-47 21z" />
    <glyph glyph-name="odieresis" unicode="&#xf6;" horiz-adv-x="600" 
d="M319 434c155 0 253 -86 253 -222c0 -139 -109 -223 -289 -223c-73 0 -127 13 -169 40c-55 36 -87 101 -87 177c0 137 117 228 292 228zM292 351c-49 0 -76 -38 -76 -106c0 -105 37 -173 94 -173c50 0 73 35 73 111c0 97 -38 168 -91 168zM201 624c35 0 63 -29 63 -64
s-29 -63 -64 -63c-34 0 -63 29 -63 63c0 35 28 64 64 64zM399 624c35 0 64 -29 64 -64s-29 -63 -64 -63c-34 0 -63 29 -63 63c0 35 28 64 63 64z" />
    <glyph glyph-name="ograve" unicode="&#xf2;" horiz-adv-x="600" 
d="M319 434c155 0 253 -86 253 -222c0 -139 -109 -223 -289 -223c-73 0 -127 13 -169 40c-55 36 -87 101 -87 177c0 137 117 228 292 228zM292 351c-49 0 -76 -38 -76 -106c0 -105 37 -173 94 -173c50 0 73 35 73 111c0 97 -38 168 -91 168zM248 681l136 -194l-61 -10
l-185 144v29z" />
    <glyph glyph-name="otilde" unicode="&#xf5;" horiz-adv-x="600" 
d="M319 434c155 0 253 -86 253 -222c0 -139 -109 -223 -289 -223c-73 0 -127 13 -169 40c-55 36 -87 101 -87 177c0 137 117 228 292 228zM292 351c-49 0 -76 -38 -76 -106c0 -105 37 -173 94 -173c50 0 73 35 73 111c0 97 -38 168 -91 168zM434 641h6l40 -28
c-20 -80 -64 -125 -120 -125c-25 0 -40 6 -80 33c-27 17 -39 22 -53 22c-23 0 -38 -16 -48 -54h-6l-42 28c27 84 67 124 122 124c24 0 33 -4 85 -36c24 -15 33 -19 46 -19c24 0 36 13 50 55z" />
    <glyph glyph-name="scaron" unicode="&#x161;" horiz-adv-x="467" 
d="M418 333l-43 -23c-29 23 -73 35 -124 35c-37 0 -58 -11 -58 -30c0 -9 6 -16 16 -21c12 -5 12 -5 67 -19c60 -16 89 -26 110 -39c39 -24 56 -54 56 -96c0 -96 -88 -152 -241 -152c-52 0 -107 5 -146 14c-16 4 -16 4 -19 23l-9 69l46 25c42 -30 83 -42 140 -42
c43 0 65 11 65 33c0 8 -5 16 -14 20c-9 5 -9 5 -61 19c-61 16 -89 25 -107 36c-38 23 -59 57 -59 100c0 92 91 149 238 149c37 0 83 -5 117 -14c17 -4 17 -4 19 -23zM291 484h-76l-120 183l47 21l111 -94l111 94l47 -21z" />
    <glyph glyph-name="uacute" unicode="&#xfa;" horiz-adv-x="585" 
d="M362 422h172v-422h-165l2 50c-80 -42 -139 -61 -188 -61c-52 0 -94 24 -115 66c-14 29 -19 64 -19 142v225h172v-230c0 -60 11 -77 51 -77c25 0 61 11 90 27v280zM361 681l110 -31v-29l-185 -144l-61 10z" />
    <glyph glyph-name="ucircumflex" unicode="&#xfb;" horiz-adv-x="585" 
d="M362 422h172v-422h-165l2 50c-80 -42 -139 -61 -188 -61c-52 0 -94 24 -115 66c-14 29 -19 64 -19 142v225h172v-230c0 -60 11 -77 51 -77c25 0 61 11 90 27v280zM254 671h76l120 -183l-47 -21l-111 94l-111 -94l-47 21z" />
    <glyph glyph-name="udieresis" unicode="&#xfc;" horiz-adv-x="585" 
d="M362 422h172v-422h-165l2 50c-80 -42 -139 -61 -188 -61c-52 0 -94 24 -115 66c-14 29 -19 64 -19 142v225h172v-230c0 -60 11 -77 51 -77c25 0 61 11 90 27v280zM193 624c35 0 63 -29 63 -64s-29 -63 -64 -63c-34 0 -63 29 -63 63c0 35 28 64 64 64zM391 624
c35 0 64 -29 64 -64s-29 -63 -64 -63c-34 0 -63 29 -63 63c0 35 28 64 63 64z" />
    <glyph glyph-name="ugrave" unicode="&#xf9;" horiz-adv-x="585" 
d="M362 422h172v-422h-165l2 50c-80 -42 -139 -61 -188 -61c-52 0 -94 24 -115 66c-14 29 -19 64 -19 142v225h172v-230c0 -60 11 -77 51 -77c25 0 61 11 90 27v280zM229 681l136 -194l-61 -10l-185 144v29z" />
    <glyph glyph-name="yacute" unicode="&#xfd;" horiz-adv-x="486" 
d="M-9 422h193l76 -248l105 248h141l-357 -692l-133 25l150 237zM334 681l110 -31v-29l-185 -144l-61 10z" />
    <glyph glyph-name="ydieresis" unicode="&#xff;" horiz-adv-x="486" 
d="M-9 422h193l76 -248l105 248h141l-357 -692l-133 25l150 237zM177 624c35 0 63 -29 63 -64s-29 -63 -64 -63c-34 0 -63 29 -63 63c0 35 28 64 64 64zM375 624c35 0 64 -29 64 -64s-29 -63 -64 -63c-34 0 -63 29 -63 63c0 35 28 64 63 64z" />
    <glyph glyph-name="zcaron" unicode="&#x17e;" horiz-adv-x="464" 
d="M36 422h417v-67l-227 -269h227l-14 -86h-428v60l232 276h-207v86zM287 484h-76l-120 183l47 21l111 -94l111 94l47 -21z" />
    <glyph glyph-name="Abreve" unicode="&#x102;" horiz-adv-x="689" 
d="M295 634h142l258 -634h-205l-59 160h-232l-65 -160h-145zM402 250l-79 221l-88 -221h167zM199 849h68c8 -47 40 -70 100 -70c59 0 92 23 99 70h68c1 -7 1 -13 1 -16c0 -92 -68 -154 -168 -154c-101 0 -168 62 -168 157v13z" />
    <glyph glyph-name="Aogonek" unicode="&#x104;" horiz-adv-x="689" 
d="M295 634h142l258 -634c-47 -54 -65 -87 -65 -119c0 -28 22 -44 60 -44c11 0 28 2 43 4h10l-2 -23c-2 -14 -3 -17 -11 -22c-17 -11 -57 -21 -86 -21c-66 0 -111 38 -111 94c0 43 27 85 83 131h-126l-59 160h-232l-65 -160h-145zM402 250l-79 221l-88 -221h167z" />
    <glyph glyph-name="Cacute" unicode="&#x106;" horiz-adv-x="641" 
d="M637 601l-9 -73c-1 -12 -2 -12 -11 -17l-20 -10c-8 -4 -8 -4 -10 -4c-1 0 -3 1 -11 6c-53 31 -111 48 -171 48c-119 0 -175 -68 -175 -210c0 -167 73 -258 206 -258c54 0 116 19 151 47c7 6 9 7 11 7c1 0 3 -1 7 -3l17 -10c6 -5 7 -5 7 -8c0 -1 0 -1 -1 -8l-11 -72
c-2 -15 -3 -16 -11 -19c-50 -16 -130 -28 -197 -28c-103 0 -177 18 -238 57c-86 54 -137 150 -137 259c0 204 160 340 400 340c60 0 131 -10 188 -25c12 -4 15 -6 15 -11v-8zM506 882l111 -48l-5 -31l-213 -122l-62 19z" />
    <glyph glyph-name="Ccaron" unicode="&#x10c;" horiz-adv-x="641" 
d="M637 601l-9 -73c-1 -12 -2 -12 -11 -17l-20 -10c-8 -4 -8 -4 -10 -4c-1 0 -3 1 -11 6c-53 31 -111 48 -171 48c-119 0 -175 -68 -175 -210c0 -167 73 -258 206 -258c54 0 116 19 151 47c7 6 9 7 11 7c1 0 3 -1 7 -3l17 -10c6 -5 7 -5 7 -8c0 -1 0 -1 -1 -8l-11 -72
c-2 -15 -3 -16 -11 -19c-50 -16 -130 -28 -197 -28c-103 0 -177 18 -238 57c-86 54 -137 150 -137 259c0 204 160 340 400 340c60 0 131 -10 188 -25c12 -4 15 -6 15 -11v-8zM456 681h-73l-158 180l50 29l145 -101l144 101l50 -29z" />
    <glyph glyph-name="Dcaron" unicode="&#x10e;" horiz-adv-x="791" 
d="M67 634l106 2c35 0 35 0 77 1l62 1c147 0 214 -7 270 -29c112 -44 174 -141 174 -272c0 -152 -86 -269 -229 -314c-53 -17 -115 -23 -236 -23h-224v634zM249 87h43c94 0 124 3 161 18c71 27 107 103 107 224c0 96 -26 161 -78 196c-32 21 -72 29 -142 29
c-19 0 -63 -1 -91 -3v-464zM395 681h-73l-158 180l50 29l145 -101l144 101l50 -29z" />
    <glyph glyph-name="Ecaron" unicode="&#x11a;" horiz-adv-x="598" 
d="M67 634h495v-95h-313v-160h280v-93h-280v-185h326v-101h-508v634zM369 681h-73l-158 180l50 29l145 -101l144 101l50 -29z" />
    <glyph glyph-name="Edotaccent" unicode="&#x116;" horiz-adv-x="598" 
d="M67 634h495v-95h-313v-160h280v-93h-280v-185h326v-101h-508v634zM333 837c39 0 71 -32 71 -71s-32 -71 -72 -71c-38 0 -70 32 -70 71s32 71 71 71z" />
    <glyph glyph-name="Eogonek" unicode="&#x118;" horiz-adv-x="598" 
d="M67 634h495v-95h-313v-160h280v-93h-280v-185h326v-101c-44 -50 -64 -87 -64 -119c0 -27 22 -44 59 -44c11 0 28 2 43 4h11l-3 -23c-2 -15 -3 -17 -11 -22c-17 -11 -57 -21 -85 -21c-66 0 -111 38 -111 94c0 43 26 84 83 131h-430v634z" />
    <glyph glyph-name="Gbreve" unicode="&#x11e;" horiz-adv-x="755" 
d="M517 311h182v-289c-92 -22 -188 -33 -283 -33c-112 0 -187 16 -250 55c-85 51 -132 141 -132 252c0 210 163 349 410 349c63 0 150 -11 202 -26c18 -5 19 -5 20 -24l4 -71l1 -7c0 -5 -1 -6 -10 -10l-27 -14c-6 -3 -6 -3 -8 -3s-4 1 -15 9c-43 31 -117 53 -182 53
c-132 0 -199 -79 -199 -234c0 -158 75 -239 221 -239c19 0 35 2 66 6v226zM255 849h68c8 -47 40 -70 100 -70c59 0 92 23 99 70h68c1 -7 1 -13 1 -16c0 -92 -68 -154 -168 -154c-101 0 -168 62 -168 157v13z" />
    <glyph glyph-name="Idotaccent" unicode="&#x130;" horiz-adv-x="317" 
d="M67 634h182v-634h-182v634zM158 837c39 0 71 -32 71 -71s-32 -71 -72 -71c-38 0 -70 33 -70 71c0 39 32 71 71 71z" />
    <glyph glyph-name="Lacute" unicode="&#x139;" horiz-adv-x="536" 
d="M67 634h182v-533h298v-101h-480v634zM293 882l111 -48l-5 -31l-213 -122l-62 19z" />
    <glyph glyph-name="Lcaron" unicode="&#x13d;" horiz-adv-x="536" 
d="M67 634h182v-533h298v-101h-480v634zM319 421v3c46 31 79 71 79 96c0 9 -6 16 -19 22c-31 15 -37 23 -37 50c0 32 28 57 64 57c47 0 81 -39 81 -93c0 -48 -24 -92 -74 -136c-19 -16 -52 -39 -57 -39c-2 0 -2 0 -7 6z" />
    <glyph glyph-name="Nacute" unicode="&#x143;" horiz-adv-x="749" 
d="M67 634h148l347 -389l-7 389h133l-7 -626l-118 -19l-379 421l10 -410h-132zM498 882l111 -48l-5 -31l-213 -122l-62 19z" />
    <glyph glyph-name="Ncaron" unicode="&#x147;" horiz-adv-x="749" 
d="M67 634h148l347 -389l-7 389h133l-7 -626l-118 -19l-379 421l10 -410h-132zM435 681h-73l-158 180l50 29l145 -101l144 101l50 -29z" />
    <glyph glyph-name="Ohungarumlaut" unicode="&#x150;" horiz-adv-x="820" 
d="M431 646c217 0 356 -123 356 -315c0 -205 -159 -342 -398 -342c-220 0 -355 121 -355 316c0 211 151 341 397 341zM405 556c-110 0 -177 -83 -177 -219c0 -155 77 -258 193 -258c108 0 172 82 172 219c0 158 -73 258 -188 258zM425 876l84 -38l-1 -30l-171 -137l-62 13z
M604 876l84 -38l-1 -30l-171 -137l-62 13z" />
    <glyph glyph-name="Racute" unicode="&#x154;" horiz-adv-x="689" 
d="M67 0v634c186 3 279 4 279 4c95 0 144 -8 183 -30c54 -31 86 -85 86 -148c0 -84 -52 -143 -148 -169c75 -140 153 -222 221 -232l3 -5l-5 -42c-1 -10 -3 -13 -11 -15c-25 -7 -59 -12 -87 -12c-127 0 -203 71 -301 282h-7h-11h-14h-14v-267h-174zM241 551v-201
c28 -1 38 -1 49 -1c62 0 89 7 108 27c16 17 25 47 25 82c0 40 -15 69 -44 83c-16 8 -41 11 -93 11h-24c-3 0 -11 0 -21 -1zM428 882l111 -48l-5 -31l-213 -122l-62 19z" />
    <glyph glyph-name="Rcaron" unicode="&#x158;" horiz-adv-x="689" 
d="M67 0v634c186 3 279 4 279 4c95 0 144 -8 183 -30c54 -31 86 -85 86 -148c0 -84 -52 -143 -148 -169c75 -140 153 -222 221 -232l3 -5l-5 -42c-1 -10 -3 -13 -11 -15c-25 -7 -59 -12 -87 -12c-127 0 -203 71 -301 282h-7h-11h-14h-14v-267h-174zM241 551v-201
c28 -1 38 -1 49 -1c62 0 89 7 108 27c16 17 25 47 25 82c0 40 -15 69 -44 83c-16 8 -41 11 -93 11h-24c-3 0 -11 0 -21 -1zM372 681h-73l-158 180l50 29l145 -101l144 101l50 -29z" />
    <glyph glyph-name="Sacute" unicode="&#x15a;" horiz-adv-x="563" 
d="M503 603l7 -58c1 -8 1 -12 1 -12c0 -4 -2 -6 -9 -11l-24 -14c-3 -1 -8 -3 -11 -3s-3 0 -20 11c-38 23 -94 37 -151 37c-61 0 -96 -23 -96 -64c0 -18 9 -32 30 -46c18 -12 20 -13 110 -49c75 -29 113 -50 143 -77c32 -30 52 -77 52 -123c0 -89 -60 -158 -163 -188
c-39 -11 -87 -17 -143 -17c-46 0 -117 7 -164 16c-29 5 -31 6 -32 24l-4 73c-1 10 -1 15 -1 16c0 4 2 6 10 10l25 13c3 2 10 4 12 4c1 0 4 -1 7 -4c46 -34 124 -59 186 -59c63 0 100 27 100 72c0 30 -12 47 -48 66c-20 12 -24 13 -137 58c-101 40 -146 93 -146 175
c0 123 101 192 283 192c55 0 116 -6 168 -17c12 -2 12 -2 15 -25zM382 882l111 -48l-5 -31l-213 -122l-62 19z" />
    <glyph glyph-name="Scedilla" unicode="&#x15e;" horiz-adv-x="563" 
d="M330 -4l-28 -47v-10c37 -16 56 -39 56 -69c0 -61 -72 -121 -145 -121c-40 0 -80 22 -80 44c0 4 1 6 4 9l36 32h14c16 -19 31 -27 49 -27c17 0 29 11 29 26c0 18 -12 29 -66 58v27l50 71c-68 1 -85 2 -160 12c-36 5 -48 8 -51 11c-2 2 -4 10 -5 17l-4 73l-1 10v6
c0 4 2 6 10 10l26 13c3 2 10 4 11 4c2 0 4 -1 7 -4c46 -34 124 -59 186 -59c63 0 100 27 100 72c0 30 -12 47 -48 66c-20 12 -24 13 -137 58c-101 40 -146 94 -146 175c0 123 101 192 283 192c56 0 116 -6 169 -17c12 -2 12 -2 14 -25l7 -58c1 -8 1 -12 1 -12
c0 -4 -2 -7 -9 -11l-24 -14c-3 -1 -8 -3 -10 -3c-4 0 -4 0 -21 11c-38 23 -94 37 -151 37c-61 0 -96 -23 -96 -65c0 -17 9 -31 30 -45c18 -12 20 -14 110 -49c75 -29 113 -50 143 -78c32 -30 52 -76 52 -123c0 -102 -76 -174 -205 -197z" />
    <glyph glyph-name="Scedilla" unicode="&#xf6c1;" horiz-adv-x="563" 
d="M330 -4l-28 -47v-10c37 -16 56 -39 56 -69c0 -61 -72 -121 -145 -121c-40 0 -80 22 -80 44c0 4 1 6 4 9l36 32h14c16 -19 31 -27 49 -27c17 0 29 11 29 26c0 18 -12 29 -66 58v27l50 71c-68 1 -85 2 -160 12c-36 5 -48 8 -51 11c-2 2 -4 10 -5 17l-4 73l-1 10v6
c0 4 2 6 10 10l26 13c3 2 10 4 11 4c2 0 4 -1 7 -4c46 -34 124 -59 186 -59c63 0 100 27 100 72c0 30 -12 47 -48 66c-20 12 -24 13 -137 58c-101 40 -146 94 -146 175c0 123 101 192 283 192c56 0 116 -6 169 -17c12 -2 12 -2 14 -25l7 -58c1 -8 1 -12 1 -12
c0 -4 -2 -7 -9 -11l-24 -14c-3 -1 -8 -3 -10 -3c-4 0 -4 0 -21 11c-38 23 -94 37 -151 37c-61 0 -96 -23 -96 -65c0 -17 9 -31 30 -45c18 -12 20 -14 110 -49c75 -29 113 -50 143 -78c32 -30 52 -76 52 -123c0 -102 -76 -174 -205 -197z" />
    <glyph glyph-name="Tcaron" unicode="&#x164;" horiz-adv-x="624" 
d="M-17 634h658v-95h-238v-539h-182v539h-238v95zM348 681h-73l-158 180l50 29l145 -101l144 101l50 -29z" />
    <glyph glyph-name="Uring" unicode="&#x16e;" horiz-adv-x="738" 
d="M62 634h182v-354c0 -90 6 -116 33 -141c23 -22 61 -33 112 -33c66 0 111 16 132 49c19 27 24 62 24 168v311h137l-7 -343c-2 -71 -7 -107 -19 -141c-40 -106 -148 -161 -316 -161c-108 0 -187 28 -231 82c-36 44 -47 92 -47 205v358zM394 914c72 0 130 -53 130 -119
c0 -67 -57 -118 -131 -118c-71 0 -128 53 -128 117c0 67 58 120 129 120zM395 854c-30 0 -51 -25 -51 -60c0 -34 23 -60 52 -60s49 25 49 60s-21 60 -50 60z" />
    <glyph glyph-name="Uhungarumlaut" unicode="&#x170;" horiz-adv-x="738" 
d="M62 634h182v-354c0 -90 6 -116 33 -141c23 -22 61 -33 112 -33c66 0 111 16 132 49c19 27 24 62 24 168v311h137l-7 -343c-2 -71 -7 -107 -19 -141c-40 -106 -148 -161 -316 -161c-108 0 -187 28 -231 82c-36 44 -47 92 -47 205v358zM409 876l84 -38l-1 -30l-171 -137
l-62 13zM588 876l84 -38l-1 -30l-171 -137l-62 13z" />
    <glyph glyph-name="Zacute" unicode="&#x179;" horiz-adv-x="605" 
d="M31 634h557v-72l-344 -461h350l-17 -101h-566v77l345 462h-325v95zM403 882l111 -48l-5 -31l-213 -122l-62 19z" />
    <glyph glyph-name="Zdotaccent" unicode="&#x17b;" horiz-adv-x="605" 
d="M31 634h557v-72l-344 -461h350l-17 -101h-566v77l345 462h-325v95zM319 837c39 0 71 -32 71 -71s-32 -71 -72 -71c-38 0 -70 32 -70 71s32 71 71 71z" />
    <glyph glyph-name="Amacron" unicode="&#x100;" horiz-adv-x="689" 
d="M295 634h142l258 -634h-205l-59 160h-232l-65 -160h-145zM402 250l-79 221l-88 -221h167zM215 814h299v-102h-299v102z" />
    <glyph glyph-name="Tcommaaccent" unicode="&#x162;" horiz-adv-x="624" 
d="M-17 634h658v-95h-238v-539h-182v539h-238v95zM225 -273v3c46 31 79 71 79 96c0 9 -6 16 -19 22c-30 14 -37 23 -37 50c0 32 28 57 64 57c47 0 81 -39 81 -93c0 -48 -24 -92 -74 -135c-19 -17 -52 -40 -57 -40c-2 0 -2 0 -7 6z" />
    <glyph glyph-name="Tcommaaccent" unicode="&#x21a;" horiz-adv-x="624" 
d="M-17 634h658v-95h-238v-539h-182v539h-238v95zM225 -273v3c46 31 79 71 79 96c0 9 -6 16 -19 22c-30 14 -37 23 -37 50c0 32 28 57 64 57c47 0 81 -39 81 -93c0 -48 -24 -92 -74 -135c-19 -17 -52 -40 -57 -40c-2 0 -2 0 -7 6z" />
    <glyph glyph-name="Emacron" unicode="&#x112;" horiz-adv-x="598" 
d="M67 634h495v-95h-313v-160h280v-93h-280v-185h326v-101h-508v634zM183 814h299v-102h-299v102z" />
    <glyph glyph-name="Imacron" unicode="&#x12a;" horiz-adv-x="317" 
d="M67 634h182v-634h-182v634zM9 814h299v-102h-299v102z" />
    <glyph glyph-name="Iogonek" unicode="&#x12e;" horiz-adv-x="317" 
d="M67 634h182v-634c-46 -54 -64 -87 -64 -119c0 -27 22 -44 59 -44c11 0 28 2 43 4h11l-3 -23c-2 -15 -3 -17 -11 -22c-18 -11 -57 -21 -85 -21c-66 0 -111 38 -111 95c0 42 26 83 83 130h-104v634z" />
    <glyph glyph-name="Kcommaaccent" unicode="&#x136;" horiz-adv-x="697" 
d="M506 634h186l-252 -257l274 -377h-231l-224 329zM67 634h188v-634h-188v634zM267 -273v3c46 31 79 71 79 96c0 9 -6 16 -19 22c-29 14 -36 23 -36 49c0 33 28 58 64 58c47 0 80 -39 80 -93c0 -52 -29 -101 -88 -147c-18 -15 -39 -28 -43 -28c-2 0 -2 0 -7 6z" />
    <glyph glyph-name="Lcommaaccent" unicode="&#x13b;" horiz-adv-x="536" 
d="M67 634h182v-533h298v-101h-480v634zM184 -273v3c46 31 79 71 79 96c0 9 -6 16 -19 22c-30 14 -37 23 -37 50c0 32 28 57 64 57c47 0 81 -39 81 -93c0 -48 -24 -92 -74 -135c-19 -17 -52 -40 -57 -40c-2 0 -2 0 -7 6z" />
    <glyph glyph-name="Ncommaaccent" unicode="&#x145;" horiz-adv-x="749" 
d="M67 634h148l347 -389l-7 389h133l-7 -626l-118 -19l-379 421l10 -410h-132zM288 -273v3c46 31 79 71 79 96c0 9 -6 16 -19 22c-30 14 -37 23 -37 50c0 32 28 57 64 57c47 0 81 -39 81 -93c0 -48 -24 -92 -74 -135c-19 -17 -52 -40 -57 -40c-2 0 -2 0 -7 6z" />
    <glyph glyph-name="Omacron" unicode="&#x14c;" horiz-adv-x="820" 
d="M431 646c217 0 356 -123 356 -315c0 -205 -159 -342 -398 -342c-220 0 -355 121 -355 316c0 211 151 341 397 341zM405 556c-110 0 -177 -83 -177 -219c0 -155 77 -258 193 -258c108 0 172 82 172 219c0 158 -73 258 -188 258zM261 814h299v-102h-299v102z" />
    <glyph glyph-name="Rcommaaccent" unicode="&#x156;" horiz-adv-x="689" 
d="M67 0v634c186 3 279 4 279 4c95 0 144 -8 183 -30c54 -31 86 -85 86 -148c0 -84 -52 -143 -148 -169c75 -140 153 -222 221 -232l3 -5l-5 -42c-1 -10 -3 -13 -11 -15c-25 -7 -59 -12 -87 -12c-127 0 -203 71 -301 282h-7h-11h-14h-14v-267h-174zM241 551v-201
c28 -1 38 -1 49 -1c62 0 89 7 108 27c16 17 25 47 25 82c0 40 -15 69 -44 83c-16 8 -41 11 -93 11h-24c-3 0 -11 0 -21 -1zM258 -273v3c46 31 79 71 79 96c0 9 -6 16 -19 22c-30 14 -37 23 -37 50c0 32 28 57 64 57c47 0 81 -39 81 -93c0 -48 -24 -92 -74 -135
c-19 -17 -52 -40 -57 -40c-2 0 -2 0 -7 6z" />
    <glyph glyph-name="Gcommaaccent" unicode="&#x122;" horiz-adv-x="755" 
d="M517 311h182v-289c-92 -22 -188 -33 -283 -33c-112 0 -187 16 -250 55c-85 51 -132 141 -132 252c0 210 163 349 410 349c63 0 150 -11 202 -26c18 -5 19 -5 20 -24l4 -71l1 -7c0 -5 -1 -6 -10 -10l-27 -14c-6 -3 -6 -3 -8 -3s-4 1 -15 9c-43 31 -117 53 -182 53
c-132 0 -199 -79 -199 -234c0 -158 75 -239 221 -239c19 0 35 2 66 6v226zM327 -267v4c46 31 77 68 77 92c0 9 -6 16 -19 22c-29 14 -35 23 -35 48c0 32 27 56 62 56c45 0 78 -37 78 -90c0 -47 -23 -89 -72 -132c-20 -18 -50 -38 -55 -38c-2 0 -2 0 -7 6z" />
    <glyph glyph-name="Umacron" unicode="&#x16a;" horiz-adv-x="738" 
d="M62 634h182v-354c0 -90 6 -116 33 -141c23 -22 61 -33 112 -33c66 0 111 16 132 49c19 27 24 62 24 168v311h137l-7 -343c-2 -71 -7 -107 -19 -141c-40 -106 -148 -161 -316 -161c-108 0 -187 28 -231 82c-36 44 -47 92 -47 205v358zM243 814h299v-102h-299v102z" />
    <glyph glyph-name="Uogonek" unicode="&#x172;" horiz-adv-x="738" 
d="M62 634h182v-354c0 -90 6 -116 33 -141c23 -22 61 -33 112 -33c66 0 111 16 132 49c19 27 24 62 24 168v311h137l-7 -343c-4 -143 -22 -185 -108 -251c-36 -27 -48 -39 -67 -62c-25 -33 -40 -68 -40 -96c0 -29 22 -45 60 -45c11 0 28 2 43 4h11l-3 -23
c-2 -16 -2 -16 -11 -22c-17 -11 -57 -21 -86 -21c-66 0 -111 38 -111 94c0 43 28 84 92 131c-40 -8 -72 -11 -113 -11c-110 0 -188 28 -233 82c-36 44 -47 92 -47 205v358z" />
    <glyph glyph-name="abreve" unicode="&#x103;" horiz-adv-x="583" 
d="M587 101v-47c0 -19 0 -19 -20 -28c-51 -24 -113 -41 -152 -41c-40 0 -62 12 -73 39c-56 -21 -122 -35 -169 -35c-84 0 -129 43 -129 123c0 64 26 96 92 116c33 10 107 24 192 37v7v22c-1 35 -23 50 -71 50c-60 0 -99 -16 -132 -55l-41 14l-5 67v9c0 9 5 11 32 22
c64 23 121 32 198 32c73 0 116 -10 148 -36c30 -23 39 -50 39 -116l-1 -16l-2 -111l-1 -24v-13c0 -18 8 -27 24 -27c17 0 45 7 67 15zM331 99v93c-26 -2 -60 -7 -78 -11c-33 -7 -40 -15 -40 -44c0 -40 9 -50 48 -50c22 0 43 4 70 12zM151 644h60c2 -49 31 -73 88 -73
c56 0 85 24 87 73h60c1 -7 1 -15 1 -18c0 -90 -59 -150 -148 -150c-90 0 -148 60 -148 153v15z" />
    <glyph glyph-name="aogonek" unicode="&#x105;" horiz-adv-x="583" 
d="M125 289l-41 14l-5 67v9c0 9 5 11 32 22c64 23 121 32 198 32c73 0 116 -10 148 -36c30 -23 39 -50 39 -116l-1 -16l-2 -111l-1 -24v-13c0 -18 8 -27 24 -27c17 0 45 7 67 15l4 -4v-47v-12c0 -7 -2 -8 -28 -21c-22 -11 -38 -22 -50 -35c-29 -29 -50 -71 -50 -100
c0 -27 22 -43 58 -43c10 0 31 2 41 3h11l-2 -22c-2 -14 -3 -16 -11 -21c-18 -11 -55 -20 -84 -20c-64 0 -107 37 -107 91c0 36 21 73 63 111h-13c-40 0 -62 12 -73 39c-56 -21 -122 -35 -169 -35c-84 0 -129 43 -129 123c0 64 26 96 92 116c33 10 107 24 192 37v7v22
c-1 35 -23 50 -71 50c-60 0 -99 -16 -132 -55zM331 99v93c-26 -2 -60 -7 -78 -11c-33 -7 -40 -15 -40 -44c0 -40 9 -50 48 -50c22 0 43 4 70 12z" />
    <glyph glyph-name="cacute" unicode="&#x107;" horiz-adv-x="466" 
d="M402 291h-32c-22 22 -47 31 -90 31c-51 0 -72 -25 -72 -84c0 -40 11 -81 29 -104c17 -23 44 -34 82 -34c39 0 72 10 111 35l12 -6v-51c-1 -24 -1 -24 -24 -38c-51 -33 -115 -51 -181 -51c-127 0 -209 75 -209 193c0 143 120 251 277 251c50 0 101 -11 132 -29
c10 -5 13 -11 13 -25c0 -25 0 -25 -10 -38zM353 681l110 -31v-29l-185 -144l-61 10z" />
    <glyph glyph-name="ccaron" unicode="&#x10d;" horiz-adv-x="466" 
d="M402 291h-32c-22 22 -47 31 -90 31c-51 0 -72 -25 -72 -84c0 -40 11 -81 29 -104c17 -23 44 -34 82 -34c39 0 72 10 111 35l12 -6v-51c-1 -24 -1 -24 -24 -38c-51 -33 -115 -51 -181 -51c-127 0 -209 75 -209 193c0 143 120 251 277 251c50 0 101 -11 132 -29
c10 -5 13 -11 13 -25c0 -25 0 -25 -10 -38zM327 484h-76l-120 183l47 21l111 -94l111 94l47 -21z" />
    <glyph glyph-name="dcaron" unicode="&#x10f;" horiz-adv-x="719" 
d="M364 679h170v-679h-169v38c-51 -32 -106 -49 -158 -49c-108 0 -179 75 -179 188c0 77 29 139 86 185c51 41 119 65 182 65c23 0 39 -2 68 -8v260zM364 107v173c-1 24 -1 24 -8 29c-13 10 -42 17 -66 17c-57 0 -82 -31 -82 -98c0 -83 39 -134 100 -134c18 0 34 4 56 13z
M564 489v3c45 31 76 68 76 92c0 11 -5 15 -30 27c-15 7 -23 21 -23 41c0 32 27 56 61 56c45 0 77 -37 77 -89c0 -45 -22 -87 -68 -128c-21 -18 -52 -40 -57 -40c-2 0 -3 0 -7 6z" />
    <glyph glyph-name="ecaron" unicode="&#x11b;" horiz-adv-x="525" 
d="M502 197l-290 -17c8 -58 42 -87 102 -87c39 0 98 16 136 36l8 -2l24 -56c1 -4 3 -10 3 -13c0 -4 -5 -7 -25 -17c-77 -35 -147 -52 -220 -52c-132 0 -212 78 -212 207c0 142 103 238 257 238c102 0 175 -47 204 -130c9 -28 13 -59 13 -107zM205 253l128 11
c-2 60 -23 90 -64 90c-42 0 -62 -31 -64 -101zM314 484h-76l-120 183l47 21l111 -94l111 94l47 -21z" />
    <glyph glyph-name="edotaccent" unicode="&#x117;" horiz-adv-x="525" 
d="M502 197l-290 -17c8 -58 42 -87 102 -87c39 0 98 16 136 36l8 -2l24 -56c1 -4 3 -10 3 -13c0 -4 -5 -7 -25 -17c-77 -35 -147 -52 -220 -52c-132 0 -212 78 -212 207c0 142 103 238 257 238c102 0 175 -47 204 -130c9 -28 13 -59 13 -107zM205 253l128 11
c-2 60 -23 90 -64 90c-42 0 -62 -31 -64 -101zM276 629c38 0 68 -31 68 -68c0 -38 -31 -68 -69 -68c-36 0 -67 31 -67 67c0 38 30 69 68 69z" />
    <glyph glyph-name="eogonek" unicode="&#x119;" horiz-adv-x="525" 
d="M502 197l-290 -17c8 -58 42 -87 102 -87c39 0 98 16 136 36l8 -2l24 -56c1 -4 3 -10 3 -13c0 -5 -7 -9 -36 -22c-38 -17 -51 -25 -70 -42c-31 -31 -53 -74 -53 -105c0 -30 21 -46 58 -46c10 0 31 2 41 3h11l-3 -22c-1 -14 -3 -16 -10 -21c-18 -11 -55 -20 -84 -20
c-64 0 -107 37 -107 91c0 39 25 80 73 120c-25 -4 -42 -5 -63 -5c-134 0 -214 78 -214 207c0 142 104 238 257 238c102 0 175 -47 204 -130c9 -28 13 -59 13 -107zM205 253l128 11c-2 60 -23 90 -64 90c-42 0 -62 -31 -64 -101z" />
    <glyph glyph-name="gbreve" unicode="&#x11f;" horiz-adv-x="568" 
d="M573 422v-86h-88c20 -31 26 -50 26 -76c0 -47 -27 -90 -73 -116c-42 -25 -75 -34 -187 -55c-23 -5 -30 -8 -30 -16c0 -13 18 -18 102 -24c114 -9 139 -14 173 -31c42 -22 64 -56 64 -98c0 -111 -143 -190 -344 -190c-135 0 -209 36 -209 102c0 53 41 86 144 117
c-54 20 -75 42 -75 78c0 38 29 61 112 89c-89 14 -141 67 -141 144c0 107 89 173 233 173c32 0 54 -2 104 -11h189zM285 161c42 12 59 38 59 86c0 69 -27 112 -71 112c-38 0 -61 -34 -61 -91c0 -62 28 -102 73 -107zM238 -71c-54 -26 -69 -40 -69 -64c0 -30 46 -50 114 -50
c71 0 123 27 123 64c0 26 -14 33 -93 41c-43 5 -45 5 -75 9zM148 644h60c2 -49 31 -73 88 -73c56 0 85 24 87 73h60c1 -7 1 -15 1 -18c0 -90 -59 -150 -148 -150c-90 0 -148 60 -148 153v15z" />
    <glyph glyph-name="lacute" unicode="&#x13a;" horiz-adv-x="272" 
d="M50 679h171v-679h-171v679zM220 916l110 -49l-5 -30l-213 -122l-62 19z" />
    <glyph glyph-name="lcaron" unicode="&#x13e;" horiz-adv-x="406" 
d="M50 679h171v-679h-171v679zM250 489v3c45 31 76 68 76 92c0 11 -5 15 -30 27c-15 7 -23 21 -23 41c0 32 27 56 61 56c45 0 77 -37 77 -89c0 -45 -22 -87 -68 -128c-21 -18 -52 -40 -57 -40c-2 0 -3 0 -7 6z" />
    <glyph glyph-name="nacute" unicode="&#x144;" horiz-adv-x="585" 
d="M50 422h172l-2 -50c70 40 134 61 187 61c54 0 98 -29 116 -76c10 -27 12 -46 12 -139v-218h-172v214c0 38 -2 58 -5 68c-6 16 -20 25 -42 25c-26 0 -61 -12 -94 -32v-275h-172v422zM389 681l110 -31v-29l-185 -144l-61 10z" />
    <glyph glyph-name="ncaron" unicode="&#x148;" horiz-adv-x="585" 
d="M50 422h172l-2 -50c70 40 134 61 187 61c54 0 98 -29 116 -76c10 -27 12 -46 12 -139v-218h-172v214c0 38 -2 58 -5 68c-6 16 -20 25 -42 25c-26 0 -61 -12 -94 -32v-275h-172v422zM347 484h-76l-120 183l47 21l111 -94l111 94l47 -21z" />
    <glyph glyph-name="ohungarumlaut" unicode="&#x151;" horiz-adv-x="600" 
d="M319 434c155 0 253 -86 253 -222c0 -139 -109 -223 -289 -223c-73 0 -127 13 -169 40c-55 36 -87 101 -87 177c0 137 117 228 292 228zM292 351c-49 0 -76 -38 -76 -106c0 -105 37 -173 94 -173c50 0 73 35 73 111c0 97 -38 168 -91 168zM294 677l82 -21l3 -30l-142 -159
l-61 5zM454 677l82 -21l2 -30l-141 -159l-62 5z" />
    <glyph glyph-name="racute" unicode="&#x155;" horiz-adv-x="419" 
d="M50 422h172l-3 -97c62 85 94 108 147 108c23 0 47 -6 61 -15c6 -4 8 -10 8 -21c0 -13 0 -15 -7 -31l-35 -90h-23c-11 14 -27 21 -48 21c-36 0 -70 -31 -100 -92v-205h-172v422zM283 681l110 -31v-29l-185 -144l-61 10z" />
    <glyph glyph-name="sacute" unicode="&#x15b;" horiz-adv-x="467" 
d="M418 333l-43 -23c-29 23 -73 35 -124 35c-37 0 -58 -11 -58 -30c0 -9 6 -16 16 -21c12 -5 12 -5 67 -19c60 -16 89 -26 110 -39c39 -24 56 -54 56 -96c0 -96 -88 -152 -241 -152c-52 0 -107 5 -146 14c-16 4 -16 4 -19 23l-9 69l46 25c42 -30 83 -42 140 -42
c43 0 65 11 65 33c0 8 -5 16 -14 20c-9 5 -9 5 -61 19c-61 16 -89 25 -107 36c-38 23 -59 57 -59 100c0 92 91 149 238 149c37 0 83 -5 117 -14c17 -4 17 -4 19 -23zM314 681l110 -31v-29l-185 -144l-61 10z" />
    <glyph glyph-name="scommaaccent" unicode="&#x219;" horiz-adv-x="467" 
d="M418 333l-43 -23c-29 23 -73 35 -124 35c-37 0 -58 -11 -58 -30c0 -9 6 -16 16 -21c12 -5 12 -5 67 -19c60 -16 89 -26 110 -39c39 -24 56 -54 56 -96c0 -96 -88 -152 -241 -152c-52 0 -107 5 -146 14c-16 4 -16 4 -19 23l-9 69l46 25c42 -30 83 -42 140 -42
c43 0 65 11 65 33c0 8 -5 16 -14 20c-9 5 -9 5 -61 19c-61 16 -89 25 -107 36c-38 23 -59 57 -59 100c0 92 91 149 238 149c37 0 83 -5 117 -14c17 -4 17 -4 19 -23zM150 -262v3c46 33 76 69 76 93c0 8 -6 15 -18 21c-29 14 -35 22 -35 48c0 31 27 55 61 55
c45 0 77 -37 77 -89c0 -46 -22 -87 -68 -128c-21 -19 -52 -41 -57 -41c-2 0 -3 0 -7 6z" />
    <glyph glyph-name="tcaron" unicode="&#x165;" horiz-adv-x="446" 
d="M238 422h161v-89h-164l-4 -139v-13c0 -68 15 -87 70 -87c27 0 42 3 82 15l7 -2l10 -53l1 -11c0 -8 -9 -13 -46 -25c-51 -18 -112 -29 -155 -29c-53 0 -93 16 -115 46c-17 22 -23 51 -23 110v36l4 152h-66v44l185 162h57zM294 489v3c45 31 76 68 76 92c0 11 -5 15 -30 27
c-15 7 -23 21 -23 41c0 32 27 56 61 56c45 0 77 -37 77 -89c0 -45 -22 -87 -68 -128c-21 -18 -52 -40 -57 -40c-2 0 -3 0 -7 6z" />
    <glyph glyph-name="uring" unicode="&#x16f;" horiz-adv-x="585" 
d="M362 422h172v-422h-165l2 50c-80 -42 -139 -61 -188 -61c-52 0 -94 24 -115 66c-14 29 -19 64 -19 142v225h172v-230c0 -60 11 -77 51 -77c25 0 61 11 90 27v280zM292 703c70 0 126 -52 126 -116s-55 -114 -127 -114c-68 0 -124 51 -124 114c0 64 56 116 125 116z
M292 646c-28 0 -49 -25 -49 -59c0 -33 22 -59 51 -59c28 0 48 24 48 59c0 34 -21 59 -50 59z" />
    <glyph glyph-name="uhungarumlaut" unicode="&#x171;" horiz-adv-x="585" 
d="M362 422h172v-422h-165l2 50c-80 -42 -139 -61 -188 -61c-52 0 -94 24 -115 66c-14 29 -19 64 -19 142v225h172v-230c0 -60 11 -77 51 -77c25 0 61 11 90 27v280zM297 677l82 -21l3 -30l-142 -159l-61 5zM457 677l82 -21l2 -30l-141 -159l-62 5z" />
    <glyph glyph-name="zacute" unicode="&#x17a;" horiz-adv-x="464" 
d="M36 422h417v-67l-227 -269h227l-14 -86h-428v60l232 276h-207v86zM318 681l110 -31v-29l-185 -144l-61 10z" />
    <glyph glyph-name="zdotaccent" unicode="&#x17c;" horiz-adv-x="464" 
d="M36 422h417v-67l-227 -269h227l-14 -86h-428v60l232 276h-207v86zM254 629c38 0 68 -31 68 -68c0 -38 -31 -68 -69 -68c-36 0 -67 31 -67 67c0 38 30 69 68 69z" />
    <glyph glyph-name="tcommaaccent" unicode="&#x163;" horiz-adv-x="395" 
d="M238 422h161v-89h-164l-4 -139v-13c0 -68 15 -87 70 -87c27 0 42 3 82 15l7 -2l10 -53l1 -11c0 -8 -9 -13 -46 -25c-51 -18 -112 -29 -155 -29c-53 0 -93 16 -115 46c-17 22 -23 51 -23 110v36l4 152h-66v44l185 162h57zM128 -262v3c46 33 76 69 76 93c0 8 -6 15 -18 21
c-29 14 -35 22 -35 48c0 31 27 55 61 55c45 0 77 -37 77 -89c0 -46 -22 -87 -68 -128c-21 -19 -52 -41 -57 -41c-2 0 -3 0 -7 6z" />
    <glyph glyph-name="tcommaaccent" unicode="&#x21b;" horiz-adv-x="395" 
d="M238 422h161v-89h-164l-4 -139v-13c0 -68 15 -87 70 -87c27 0 42 3 82 15l7 -2l10 -53l1 -11c0 -8 -9 -13 -46 -25c-51 -18 -112 -29 -155 -29c-53 0 -93 16 -115 46c-17 22 -23 51 -23 110v36l4 152h-66v44l185 162h57zM128 -262v3c46 33 76 69 76 93c0 8 -6 15 -18 21
c-29 14 -35 22 -35 48c0 31 27 55 61 55c45 0 77 -37 77 -89c0 -46 -22 -87 -68 -128c-21 -19 -52 -41 -57 -41c-2 0 -3 0 -7 6z" />
    <glyph glyph-name="amacron" unicode="&#x101;" horiz-adv-x="583" 
d="M587 101v-47c0 -19 0 -19 -20 -28c-51 -24 -113 -41 -152 -41c-40 0 -62 12 -73 39c-56 -21 -122 -35 -169 -35c-84 0 -129 43 -129 123c0 64 26 96 92 116c33 10 107 24 192 37v7v22c-1 35 -23 50 -71 50c-60 0 -99 -16 -132 -55l-41 14l-5 67v9c0 9 5 11 32 22
c64 23 121 32 198 32c73 0 116 -10 148 -36c30 -23 39 -50 39 -116l-1 -16l-2 -111l-1 -24v-13c0 -18 8 -27 24 -27c17 0 45 7 67 15zM331 99v93c-26 -2 -60 -7 -78 -11c-33 -7 -40 -15 -40 -44c0 -40 9 -50 48 -50c22 0 43 4 70 12zM158 605h290v-98h-290v98z" />
    <glyph glyph-name="emacron" unicode="&#x113;" horiz-adv-x="525" 
d="M502 197l-290 -17c8 -58 42 -87 102 -87c39 0 98 16 136 36l8 -2l24 -56c1 -4 3 -10 3 -13c0 -4 -5 -7 -25 -17c-77 -35 -147 -52 -220 -52c-132 0 -212 78 -212 207c0 142 103 238 257 238c102 0 175 -47 204 -130c9 -28 13 -59 13 -107zM205 253l128 11
c-2 60 -23 90 -64 90c-42 0 -62 -31 -64 -101zM131 605h290v-98h-290v98z" />
    <glyph glyph-name="imacron" unicode="&#x12b;" horiz-adv-x="272" 
d="M50 422h172v-422h-172v422zM2 605h267v-98h-267v98z" />
    <glyph glyph-name="kcommaaccent" unicode="&#x137;" horiz-adv-x="580" 
d="M401 422h178l-180 -160l192 -262h-220l-148 226zM50 679h171v-679h-171v679zM205 -262v3c46 33 76 69 76 93c0 8 -6 15 -18 21c-29 14 -35 22 -35 48c0 31 27 55 61 55c45 0 77 -37 77 -89c0 -46 -22 -87 -68 -128c-21 -19 -52 -41 -57 -41c-2 0 -3 0 -7 6z" />
    <glyph glyph-name="lcommaaccent" unicode="&#x13c;" horiz-adv-x="272" 
d="M50 679h171v-679h-171v679zM52 -262v3c46 33 76 69 76 93c0 8 -6 15 -18 21c-29 14 -35 22 -35 48c0 31 27 55 61 55c45 0 77 -37 77 -89c0 -46 -22 -87 -68 -128c-21 -19 -52 -41 -57 -41c-2 0 -3 0 -7 6z" />
    <glyph glyph-name="ncommaaccent" unicode="&#x146;" horiz-adv-x="585" 
d="M50 422h172l-2 -50c70 40 134 61 187 61c54 0 98 -29 116 -76c10 -27 12 -46 12 -139v-218h-172v214c0 38 -2 58 -5 68c-6 16 -20 25 -42 25c-26 0 -61 -12 -94 -32v-275h-172v422zM209 -263v3c46 33 76 69 76 93c0 8 -6 15 -18 21c-29 14 -35 22 -35 48
c0 31 27 55 61 55c45 0 77 -37 77 -89c0 -46 -22 -87 -68 -128c-21 -19 -52 -41 -57 -41c-2 0 -3 0 -7 6z" />
    <glyph glyph-name="omacron" unicode="&#x14d;" horiz-adv-x="600" 
d="M319 434c155 0 253 -86 253 -222c0 -139 -109 -223 -289 -223c-73 0 -127 13 -169 40c-55 36 -87 101 -87 177c0 137 117 228 292 228zM292 351c-49 0 -76 -38 -76 -106c0 -105 37 -173 94 -173c50 0 73 35 73 111c0 97 -38 168 -91 168zM155 605h290v-98h-290v98z" />
    <glyph glyph-name="rcommaaccent" unicode="&#x157;" horiz-adv-x="419" 
d="M50 422h172l-3 -97c62 85 94 108 147 108c23 0 47 -6 61 -15c6 -4 8 -10 8 -21c0 -13 0 -15 -7 -31l-35 -90h-23c-11 14 -27 21 -48 21c-36 0 -70 -31 -100 -92v-205h-172v422zM103 -263v3c46 33 76 69 76 93c0 8 -6 15 -18 21c-29 14 -35 22 -35 48c0 31 27 55 61 55
c45 0 77 -37 77 -89c0 -46 -22 -87 -68 -128c-21 -19 -52 -41 -57 -41c-2 0 -3 0 -7 6z" />
    <glyph glyph-name="umacron" unicode="&#x16b;" horiz-adv-x="585" 
d="M362 422h172v-422h-165l2 50c-80 -42 -139 -61 -188 -61c-52 0 -94 24 -115 66c-14 29 -19 64 -19 142v225h172v-230c0 -60 11 -77 51 -77c25 0 61 11 90 27v280zM147 605h290v-98h-290v98z" />
    <glyph glyph-name="uogonek" unicode="&#x173;" horiz-adv-x="585" 
d="M49 422h172v-230c0 -60 11 -77 51 -77c25 0 61 11 90 27v280h172v-422c-46 -52 -63 -84 -63 -114c0 -27 22 -43 59 -43c9 0 30 2 41 3h10l-2 -22c-2 -14 -3 -16 -11 -21c-18 -11 -55 -20 -84 -20c-63 0 -107 37 -107 91c0 41 27 82 81 126h-89l2 50
c-80 -42 -139 -61 -188 -61c-52 0 -94 24 -115 66c-14 29 -19 64 -19 142v225z" />
    <glyph glyph-name="rcaron" unicode="&#x159;" horiz-adv-x="419" 
d="M50 422h172l-3 -97c62 85 94 108 147 108c23 0 47 -6 61 -15c6 -4 8 -10 8 -21c0 -13 0 -15 -7 -31l-35 -90h-23c-11 14 -27 21 -48 21c-36 0 -70 -31 -100 -92v-205h-172v422zM264 484h-76l-120 183l47 21l111 -94l111 94l47 -21z" />
    <glyph glyph-name="scedilla" unicode="&#x15f;" horiz-adv-x="467" 
d="M418 333l-44 -23c-29 23 -72 35 -122 35c-37 0 -58 -11 -58 -30c0 -9 5 -16 16 -21c12 -5 12 -5 66 -19c60 -16 88 -26 109 -39c39 -24 56 -53 56 -96c0 -74 -57 -128 -154 -145l-27 -45v-9c37 -16 55 -38 55 -67c0 -59 -70 -117 -141 -117c-39 0 -78 21 -78 42
c0 3 1 7 4 9l35 31h14c15 -18 30 -26 48 -26c16 0 28 11 28 25c0 18 -14 30 -65 56v26l51 68h-11c-50 0 -108 6 -145 14c-17 4 -17 4 -19 23l-9 69l46 25c42 -30 82 -42 139 -42c43 0 65 11 65 33c0 8 -5 16 -14 20c-9 5 -9 5 -60 19c-62 16 -89 25 -107 36
c-38 23 -59 57 -59 100c0 92 91 149 237 149c38 0 83 -5 118 -14c17 -4 17 -4 19 -23z" />
    <glyph glyph-name="scedilla" unicode="&#xf6c2;" horiz-adv-x="467" 
d="M418 333l-44 -23c-29 23 -72 35 -122 35c-37 0 -58 -11 -58 -30c0 -9 5 -16 16 -21c12 -5 12 -5 66 -19c60 -16 88 -26 109 -39c39 -24 56 -53 56 -96c0 -74 -57 -128 -154 -145l-27 -45v-9c37 -16 55 -38 55 -67c0 -59 -70 -117 -141 -117c-39 0 -78 21 -78 42
c0 3 1 7 4 9l35 31h14c15 -18 30 -26 48 -26c16 0 28 11 28 25c0 18 -14 30 -65 56v26l51 68h-11c-50 0 -108 6 -145 14c-17 4 -17 4 -19 23l-9 69l46 25c42 -30 82 -42 139 -42c43 0 65 11 65 33c0 8 -5 16 -14 20c-9 5 -9 5 -60 19c-62 16 -89 25 -107 36
c-38 23 -59 57 -59 100c0 92 91 149 237 149c38 0 83 -5 118 -14c17 -4 17 -4 19 -23z" />
    <glyph glyph-name="gcommaaccent" unicode="&#x123;" horiz-adv-x="568" 
d="M573 422v-86h-88c20 -31 26 -50 26 -76c0 -47 -27 -90 -73 -116c-42 -25 -75 -34 -187 -55c-23 -5 -30 -8 -30 -16c0 -13 18 -18 102 -24c114 -9 139 -14 173 -31c42 -22 64 -56 64 -98c0 -111 -143 -190 -344 -190c-135 0 -209 36 -209 102c0 53 41 86 144 117
c-54 20 -75 42 -75 78c0 38 29 61 112 89c-89 14 -141 67 -141 144c0 107 89 173 233 173c32 0 54 -2 104 -11h189zM285 161c42 12 59 38 59 86c0 69 -27 112 -71 112c-38 0 -61 -34 -61 -91c0 -62 28 -102 73 -107zM238 -71c-54 -26 -69 -40 -69 -64c0 -30 46 -50 114 -50
c71 0 123 27 123 64c0 26 -14 33 -93 41c-43 5 -45 5 -75 9zM372 691v-3c-47 -32 -77 -69 -77 -93c0 -11 4 -15 30 -27c16 -7 24 -21 24 -42c0 -32 -27 -56 -62 -56c-46 0 -78 37 -78 89c0 47 22 89 69 130c19 18 53 41 58 41c2 0 2 0 7 -6z" />
    <glyph glyph-name="iogonek" unicode="&#x12f;" horiz-adv-x="272" 
d="M50 422h172v-422c-46 -52 -63 -83 -63 -114c0 -27 22 -43 58 -43c10 0 31 2 42 3h10l-3 -22c-1 -14 -2 -16 -10 -21c-18 -11 -55 -20 -84 -20c-63 0 -107 37 -107 91c0 41 26 82 81 126h-96v422zM136 683c51 0 92 -41 92 -92c0 -50 -41 -91 -93 -91c-48 0 -90 42 -90 91
c0 51 41 92 91 92z" />
    <glyph glyph-name="Scommaaccent" unicode="&#x218;" horiz-adv-x="563" 
d="M503 603l7 -58c1 -8 1 -12 1 -12c0 -4 -2 -6 -9 -11l-24 -14c-3 -1 -8 -3 -11 -3s-3 0 -20 11c-38 23 -94 37 -151 37c-61 0 -96 -23 -96 -64c0 -18 9 -32 30 -46c18 -12 20 -13 110 -49c75 -29 113 -50 143 -77c32 -30 52 -77 52 -123c0 -89 -60 -158 -163 -188
c-39 -11 -87 -17 -143 -17c-46 0 -117 7 -164 16c-29 5 -31 6 -32 24l-4 73c-1 10 -1 15 -1 16c0 4 2 6 10 10l25 13c3 2 10 4 12 4c1 0 4 -1 7 -4c46 -34 124 -59 186 -59c63 0 100 27 100 72c0 30 -12 47 -48 66c-20 12 -24 13 -137 58c-101 40 -146 93 -146 175
c0 123 101 192 283 192c55 0 116 -6 168 -17c12 -2 12 -2 15 -25zM195 -273v3c46 31 79 71 79 96c0 9 -6 16 -19 22c-30 14 -37 23 -37 50c0 32 28 57 64 57c47 0 81 -39 81 -93c0 -48 -24 -92 -74 -135c-19 -17 -52 -40 -57 -40c-2 0 -2 0 -7 6z" />
    <glyph glyph-name="Dcroat" unicode="&#x110;" horiz-adv-x="810" 
d="M87 298h-78v84h78v252c44 1 239 4 246 4c147 0 214 -7 270 -29c112 -44 174 -141 174 -272c0 -152 -86 -269 -229 -314c-53 -17 -115 -23 -237 -23h-224v298zM269 298v-211h43c95 0 125 3 162 18c71 27 107 103 107 224c0 96 -26 161 -78 196c-32 21 -72 29 -143 29
c-19 0 -49 -1 -91 -3v-169h165v-84h-165z" />
    <glyph glyph-name="dcroat" unicode="&#x111;" horiz-adv-x="590" 
d="M364 679h170v-92h67v-79h-67v-508h-169v38c-51 -32 -106 -49 -158 -49c-108 0 -179 75 -179 188c0 77 29 139 86 185c51 40 119 65 182 65c23 0 39 -2 68 -8v89h-110v79h110v92zM364 107v173c-1 24 -1 24 -8 29c-13 10 -42 17 -66 17c-57 0 -82 -31 -82 -98
c0 -82 39 -134 100 -134c18 0 34 4 56 13z" />
    <glyph glyph-name="middot" unicode="&#xe000;" horiz-adv-x="289" 
d="M145 286c53 0 96 -44 96 -97s-44 -96 -98 -96c-51 0 -95 44 -95 96c0 53 43 97 97 97z" />
    <glyph glyph-name="commaaccent" unicode="&#xf6c3;" horiz-adv-x="500" 
d="M167 -262v3c46 33 76 69 76 93c0 8 -6 15 -18 21c-29 14 -35 22 -35 48c0 31 27 55 61 55c45 0 77 -37 77 -89c0 -46 -22 -87 -68 -128c-21 -19 -52 -41 -57 -41c-2 0 -3 0 -7 6z" />
    <glyph glyph-name="nbspace" unicode="&#xe001;" horiz-adv-x="197" 
 />
    <glyph glyph-name="lozenge" unicode="&#x25ca;" horiz-adv-x="634" 
d="M317 659l247 -342l-247 -341l-247 341zM317 575l-188 -258l188 -257l187 257z" />
    <glyph glyph-name="Delta" unicode="&#x394;" horiz-adv-x="629" 
d="M9 0l218 634h173l220 -634h-611zM221 145h183l-89 313z" />
    <glyph glyph-name="Delta" unicode="&#x2206;" horiz-adv-x="629" 
d="M9 0l218 634h173l220 -634h-611zM221 145h183l-89 313z" />
    <glyph glyph-name="notequal" unicode="&#x2260;" 
d="M287 430l42 91c5 10 7 13 11 13s12 -3 19 -6l37 -17c12 -6 18 -11 18 -15c0 -3 -2 -8 -7 -18l-22 -48h102c18 0 18 0 19 -32v-37c0 -20 -1 -21 -25 -21h-138l-21 -46h165c18 0 19 -1 19 -21v-37c-1 -32 -1 -32 -25 -32h-201l-42 -90c-5 -10 -7 -13 -12 -13
c-3 0 -12 3 -18 6l-37 17c-14 6 -18 10 -18 15c0 2 1 5 4 12l25 53h-102c-18 0 -18 1 -19 32v36c0 18 3 22 19 22h144l21 46h-165c-18 0 -19 2 -19 21v37c0 29 2 32 19 32h207z" />
    <glyph glyph-name="radical" unicode="&#x221a;" 
d="M651 786v-138h-149l-154 -648h-197l-46 227h-88v138h182l20 -87c7 -36 12 -81 16 -138h9c7 83 27 200 48 284l87 362h272z" />
    <glyph glyph-name="lessequal" unicode="&#x2264;" 
d="M489 576v-113l-276 -79l275 -78l1 -113l-412 129v126zM489 137v-99h-412v99h412z" />
    <glyph glyph-name="greaterequal" unicode="&#x2265;" 
d="M77 193v113l276 78l-276 79v113l412 -128v-126zM77 38v99h412v-99h-412z" />
    <glyph glyph-name="summation" unicode="&#x2211;" horiz-adv-x="634" 
d="M602 713v-254h-136l-19 114h-252l238 -322l-235 -350h258l10 121h144v-260h-578v176l217 312l-217 285v178h570z" />
    <glyph glyph-name="partialdiff" unicode="&#x2202;" horiz-adv-x="475" 
d="M46 501l19 128c127 -12 213 -43 282 -101c78 -67 116 -154 116 -270c0 -166 -88 -266 -232 -266c-130 0 -221 92 -221 221c0 112 82 197 190 197c47 0 77 -9 105 -30c-33 71 -118 111 -259 121zM237 287c-44 0 -79 -36 -79 -82c0 -44 35 -81 77 -81s77 37 77 82
s-34 81 -75 81z" />
    </font>
</defs>
</svg>
